Поиск

(Avant-Garde / Modern Creative) Miniature (Joey Baron / Tim Berne / Hank Roberts) - I Can't Put My Finger On It - 1991, FLAC (image+.cue), lossless

(Avant-Garde / Modern Creative) Miniature (Joey Baron / Tim Berne / Hank Roberts) - I Can't Put My Finger On It - 1991, FLAC (image+.cue), lossless
Треклист:
Miniature (Joey Baron / Tim Berne / Hank Roberts) - I Can't Put My Finger On It
Жанр: Avant-Garde / Modern Creative
Год выпуска диска: 2003
Производитель диска: Germany (Winter & Winter)
Аудио кодек: FLAC
Тип рипа: image+.cue
Битрейт аудио: lossless
Продолжительность: 1:15:04

Joey Baron drums, membranophone, shacktronics
Hank Roberts cello, jazz-a-phone, voice, elephant balls
Tim Berne alto and batirone saxophones, reverse vibes
Zilla
Jersy Devil
P.G. Suggested
Combat
Aspetta
Lowball
Luna
Bulfrog Breath
Who's Vacant?
Weasels In The Bush
Dink
1991 JMT
2003 Winter & Winter
 
EAC Report
Exact Audio Copy V0.99 prebeta 4 from 23. January 2008
EAC extraction logfile from 24. October 2008, 20:19
Miniature / I Can't Put My Finger On It
Used drive : TSSTcorpCD/DVDW SH-S182M Adapter: 2 ID: 0
Read mode : Secure
Utilize accurate stream : Yes
Defeat audio cache : Yes
Make use of C2 pointers : No
Read offset correction : 6
Overread into Lead-In and Lead-Out : No
Fill up missing offset samples with silence : Yes
Delete leading and trailing silent blocks : No
Null samples used in CRC calculations : Yes
Used interface : Installed external ASPI interface
Used output format : User Defined Encoder
Selected bitrate : 1024 kBit/s
Quality : High
Add ID3 tag : No
Command line compressor : C:\Program Files\Exact Audio Copy\FLAC\FLAC.EXE
Additional command line options : -6 -V -T "ARTIST=%a" -T "TITLE=%t" -T "ALBUM=%g" -T "DATE=%y" -T "TRACKNUMBER=%n" -T "GENRE=%m" -T "COMMENT=%e" %s -o %d
TOC of the extracted CD
Track | Start | Length | Start sector | End sector
---------------------------------------------------------
1 | 0:00.00 | 2:34.29 | 0 | 11578
2 | 2:34.29 | 5:32.14 | 11579 | 36492
3 | 8:06.43 | 6:30.01 | 36493 | 65743
4 | 14:36.44 | 13:30.31 | 65744 | 126524
5 | 28:07.00 | 7:16.69 | 126525 | 159293
6 | 35:23.69 | 3:45.17 | 159294 | 176185
7 | 39:09.11 | 9:17.42 | 176186 | 218002
8 | 48:26.53 | 10:19.02 | 218003 | 264429
9 | 58:45.55 | 5:27.18 | 264430 | 288972
10 | 64:12.73 | 9:32.02 | 288973 | 331874
11 | 73:45.00 | 1:19.21 | 331875 | 337820
Range status and errors
Selected range
Filename C:\z\Miniature - I Can't Put My Finger On It.wav
Peak level 98.0 %
Range quality 100.0 %
Copy CRC 5D709095
Copy OK
No errors occurred
AccurateRip summary
Track 1 not present in database
Track 2 not present in database
Track 3 not present in database
Track 4 not present in database
Track 5 not present in database
Track 6 not present in database
Track 7 not present in database
Track 8 not present in database
Track 9 not present in database
Track 10 not present in database
Track 11 not present in database
None of the tracks are present in the AccurateRip database
End of status report
Приватный:
Нет (DHT включён)
Размер:
400.95 Мб (420,425,706 байт) » файлов: 5
Участники:
0 раздают, 0 качают (0 участников всего)
Внешние участники:
2 раздают, 1 качают (3 участников всего) [ Обновить ]
No seeders - write a personal message to user M0p94ok. Нет сидеров - пишите личное сообщение пользователю M0p94ok.
04:27
80
Нет комментариев. Ваш будет первым!