Поиск

(jazz) Marty Ehrlich/Erskine/Formanek - Relativity - 1999, FLAC (image+.cue), lossless

(jazz) Marty Ehrlich/Erskine/Formanek - Relativity - 1999, FLAC (image+.cue), lossless
Треклист:
Marty Ehrlich/Erskine/Formanek - Relativity - 1999, FLAC (image+.cue), lossless
Жанр: jazz
Год выпуска диска: 1999
Производитель диска: enja, Germany
Аудио кодек: FLAC
Тип рипа: image+.cue
Битрейт аудио: lossless
Продолжительность: 64:15
Трэклист:
1. INCIDENT AT HARPHAM FLAT 6:42 by Michael Formanek
2. ELOI LAMENT 5:44 by Peter Erskine
3. LUCKY LIFE 9:19 by Marty Ehrlich
4. THE PIVOT 6:52 by Marty Ehrlich
5. HOLY WATERS 5:52 by Michael Formanek
6. ROUND THE FOUR CORNERS 6:41 by Marty Ehrlich
7. JIGGLE THE HANDLE 8:35 by Michael Formanek
8. RELATIV0 3:42 by Peter Erskine
9. TAGLIONI 6:04 by Don Grolnick
10. IN A CHILD'S EYES 4:15 by Michael Formanek
Состав:
MARTY EHRLICH al & t sax, cl, fl
PETER ERSKINE dr
MICHAEL FORMANEK b
 
EAC log
Exact Audio Copy V0.99 prebeta 4 from 23. January 2008
Отчёт EAC об извлечении, выполненном 28. октября 2008, 14:20
Ehrlich/Erskine/Formanek / Relativity
Дисковод: HL-DT-STDVDRAM GH20NS10 Adapter: 1 ID: 0
Режим чтения : Достоверность
Использование точного потока : Да
Отключение кэша аудио : Да
Использование указателей C2 : Нет
Коррекция смещения при чтении : 667
Способность читать области Lead-in и Lead-out : Нет
Заполнение пропущенных сэмплов тишиной : Да
Удаление блоков с тишиной в начале и конце : Нет
При вычислениях CRC использовались нулевые сэмплы : Да
Интерфейс : Установленный внешний ASPI-интерфейс
Выходной формат : Внутренние WAV-операции
Формат сэмплов : 44.100 Гц; 16 бит; стерео
TOC извлечённого CD
Трек | Старт | Длительность | Начальный сектор | Конечный сектор
---------------------------------------------------------------------
1 | 0:00.00 | 6:47.30 | 0 | 30554
2 | 6:47.30 | 5:46.45 | 30555 | 56549
3 | 12:34.00 | 9:22.70 | 56550 | 98769
4 | 21:56.70 | 6:53.00 | 98770 | 129744
5 | 28:49.70 | 5:55.30 | 129745 | 156399
6 | 34:45.25 | 6:46.25 | 156400 | 186874
7 | 41:31.50 | 8:36.55 | 186875 | 225629
8 | 50:08.30 | 3:42.70 | 225630 | 242349
9 | 53:51.25 | 6:07.60 | 242350 | 269934
10 | 59:59.10 | 4:16.05 | 269935 | 289139
Характеристики диапазона извлечения и сообщения об ошибках
Выбранный диапазон
Имя файла D:\Музыка\Записи\Новая папка\Ehrlich Erskine Formanek - Relativity.wav
Пиковый уровень 100.0 %
Качество диапазона 100.0 %
CRC копии 2A095E9B
Копирование... OK
Ошибок не произошло
Конец отчёта
Приватный:
Нет (DHT включён)
Размер:
304.87 Мб (319,675,673 байт) » файлов: 6
Участники:
0 раздают, 0 качают (0 участников всего)
Внешние участники:
5 раздают, 2 качают (7 участников всего) [ Обновить ]
No seeders - write a personal message to user M0p94ok. Нет сидеров - пишите личное сообщение пользователю M0p94ok.
04:26
51
Нет комментариев. Ваш будет первым!