Поиск

(Avant-Garde Jazz) Albert Ayler - Lorrach, Paris 1966, FLAC (tracks+.cue), lossless

(Avant-Garde Jazz) Albert Ayler - Lorrach, Paris 1966, FLAC (tracks+.cue), lossless
Треклист:


Albert Ayler - Lorrach, Paris 1966
Жанр: Avant-Garde Jazz
Год выпуска: 1966
Формат: FLAC (tracks+.cue)
Битрейт аудио: lossless
Продолжительность: 1:05:20
Источник: www

tracks

01 - Bells.flac
02 - Jesus.flac
03 - Our Prayer.flac
04 - Spirits.flac
05 - Holy Ghost.flac
06 - Ghost.flac
07 - Holy Family.flac
08 - Ghost II.flac


 
скрытый текст
EAC extraction logfile from 12. June 2008, 12:18 for CD
Albert Ayler / Lorrach/Paris 1966
Used drive : IDE-DVD DVDRW8651 Adapter: 2 ID: 0
Read mode : Secure with NO C2, accurate stream, NO disable cache
Read offset correction : 618
Overread into Lead-In and Lead-Out : No
Used output format : C:\Program Files\FLAC\flac.exe (User Defined Encoder)
192 kBit/s
Additional command line options : -V -8 -T "artist=%a" -T "title=%t" -T "album=%g" -T "date=%y" -T "tracknumber=%n" -T "genre=%m" %s
Other options :
Fill up missing offset samples with silence : Yes
Delete leading and trailing silent blocks : No
Native Win32 interface for Win NT & 2000
Track 1
Filename C:\New Folder\01 - Bells.wav
Pre-gap length 0:00:02.00
Peak level 99.0 %
Track quality 100.0 %
Test CRC 465BB75B
Copy CRC 465BB75B
Copy OK
Track 2
Filename C:\New Folder\02 - Jesus.wav
Peak level 98.9 %
Track quality 100.0 %
Test CRC 7A3ED7A4
Copy CRC 7A3ED7A4
Copy OK
Track 3
Filename C:\New Folder\03 - Our Prayer.wav
Peak level 98.9 %
Track quality 100.0 %
Test CRC 3AF6FA50
Copy CRC 3AF6FA50
Copy OK
Track 4
Filename C:\New Folder\04 - Spirits.wav
Peak level 98.9 %
Track quality 100.0 %
Test CRC 67D0FBAD
Copy CRC 67D0FBAD
Copy OK
Track 5
Filename C:\New Folder\05 - Holy Ghost.wav
Peak level 99.0 %
Track quality 99.9 %
Test CRC 5122BB2F
Copy CRC 5122BB2F
Copy OK
Track 6
Filename C:\New Folder\06 - Ghost.wav
Peak level 98.9 %
Track quality 100.0 %
Test CRC EF38F234
Copy CRC EF38F234
Copy OK
Track 7
Filename C:\New Folder\07 - Holy Family.wav
Peak level 99.0 %
Track quality 100.0 %
Test CRC FA116FD9
Copy CRC FA116FD9
Copy OK
Track 8
Filename C:\New Folder\08 - Ghost II.wav
Peak level 80.3 %
Track quality 100.0 %
Test CRC F085D825
Copy CRC F085D825
Copy OK
No errors occured
End of status report

другие релизы
Приватный:
Нет (DHT включён)
Размер:
415.50 Мб (435,688,497 байт) » файлов: 13
Участники:
0 раздают, 0 качают (0 участников всего)
Внешние участники:
3 раздают, 1 качают (4 участников всего) [ Обновить ]
No seeders - write a personal message to user M0p94ok. Нет сидеров - пишите личное сообщение пользователю M0p94ok.
04:29
53
Нет комментариев. Ваш будет первым!