Поиск

(avantgarde, contemporary jazz) Bill Frisell / Kermit Driscoll / Joey Baron - Music for the films of Buster Keaton - The High Sign / One Week - 1995, FLAC (image+.cue), lossless

Треклист:
Bill Frisell / Kermit Driscoll / Joey Baron - Music for the films of Buster Keaton - The High Sign / One Week
Жанр: avantgarde, contemporary jazz
Год выпуска диска: 1995
Производитель диска: USA (Nonesuch)
Аудио кодек: FLAC
Тип рипа: image+.cue
Битрейт аудио: lossless
Продолжительность: 37.08
Трэклист:
1. Introduction
2. High Sign Theme/Help Wanted
3. Target Practice
4. Blinking Buzzards
5. Good Shot/Swearing In/Shooting Gallery
6. Chase/Cop
7. High Sign Theme/At The Home Of August Nickelnurser
8. Chase/Caught
9. High Sign Theme
10. One Week Theme/Wedding
11. Reckless Driving
12. Construction
13. Oh Well/Piano
14. Fight
15. Oh Well/Bath Scene
16. Housewarming Party And Storm
17. One Week Theme/Aftermath
18. Here Comes The Train
19. Oh Well
Доп. информация:
 
eac log
Exact Audio Copy V0.99 prebeta 4 from 23. January 2008
Отчёт EAC об извлечении, выполненном 31. октября 2008, 1:06
Bill Frisell / Music for the Film of Buster Keaton - The High Sign & One Week
Дисковод: Optiarc DVD RW AD-7170A Adapter: 0 ID: 1
Режим чтения : Достоверность
Использование точного потока : Да
Отключение кэша аудио : Да
Использование указателей C2 : Нет
Коррекция смещения при чтении : 48
Способность читать области Lead-in и Lead-out : Нет
Заполнение пропущенных сэмплов тишиной : Да
Удаление блоков с тишиной в начале и конце : Нет
При вычислениях CRC использовались нулевые сэмплы : Да
Интерфейс : Встроенный Win32-интерфейс для Win NT/2000
Выходной формат : Пользовательский кодировщик
Выбранный битрейт : 768 kBit/s
Качество : Высокий
Добавление ID3-тэга : Нет
Утилита сжатия : D:\Program Files\Exact Audio Copy\FLAC\FLAC.EXE
Дополнительные параметры : -6 -V -T "ARTIST=%a" -T "TITLE=%t" -T "ALBUM=%g" -T "DATE=%y" -T "TRACKNUMBER=%n" -T "GENRE=%m" -T "COMMENT=%e" %s -o %d
TOC извлечённого CD
Трек | Старт | Длительность | Начальный сектор | Конечный сектор
---------------------------------------------------------------------
1 | 0:00.00 | 0:42.30 | 0 | 3179
2 | 0:42.30 | 1:16.27 | 3180 | 8906
3 | 1:58.57 | 1:05.39 | 8907 | 13820
4 | 3:04.21 | 2:29.53 | 13821 | 25048
5 | 5:33.74 | 5:43.32 | 25049 | 50805
6 | 11:17.31 | 1:10.10 | 50806 | 56065
7 | 12:27.41 | 3:20.54 | 56066 | 71119
8 | 15:48.20 | 1:56.43 | 71120 | 79862
9 | 17:44.63 | 0:26.55 | 79863 | 81867
10 | 18:11.43 | 1:48.32 | 81868 | 89999
11 | 20:00.00 | 0:49.43 | 90000 | 93717
12 | 20:49.43 | 3:11.72 | 93718 | 108114
13 | 24:01.40 | 2:04.43 | 108115 | 117457
14 | 26:06.08 | 1:42.07 | 117458 | 125114
15 | 27:48.15 | 2:32.20 | 125115 | 136534
16 | 30:20.35 | 2:56.73 | 136535 | 149807
17 | 33:17.33 | 2:17.42 | 149808 | 160124
18 | 35:35.00 | 0:43.68 | 160125 | 163417
19 | 36:18.68 | 0:48.70 | 163418 | 167087
Характеристики диапазона извлечения и сообщения об ошибках
Выбранный диапазон
Имя файла D:\EAC\Bill Frisell - Music for the Film of Buster Keaton - The High Sign & One Week.wav
Пиковый уровень 100.0 %
Качество диапазона 99.9 %
CRC копии 829E3442
Копирование... OK
Ошибок не произошло
AccurateRip: сводка
Трек 1 нет в базе данных
Трек 2 нет в базе данных
Трек 3 нет в базе данных
Трек 4 нет в базе данных
Трек 5 нет в базе данных
Трек 6 нет в базе данных
Трек 7 нет в базе данных
Трек 8 нет в базе данных
Трек 9 нет в базе данных
Трек 10 нет в базе данных
Трек 11 нет в базе данных
Трек 12 нет в базе данных
Трек 13 нет в базе данных
Трек 14 нет в базе данных
Трек 15 нет в базе данных
Трек 16 нет в базе данных
Трек 17 нет в базе данных
Трек 18 нет в базе данных
Трек 19 нет в базе данных
Ни одного трека нет в базе AccurateRip
Конец отчёта
Приватный:
Нет (DHT включён)
Размер:
181.56 Мб (190,378,975 байт) » файлов: 3
Участники:
0 раздают, 0 качают (0 участников всего)
Внешние участники:
3 раздают, 1 качают (4 участников всего) [ Обновить ]
No seeders - write a personal message to user M0p94ok. Нет сидеров - пишите личное сообщение пользователю M0p94ok.
04:30
99
Нет комментариев. Ваш будет первым!