Поиск

(Avant-Garde / ECM) Maneri Phillips Maneri - Angles of Repose (ECM 1862) - 2004, FLAC (image+.cue), lossless

(Avant-Garde / ECM) Maneri Phillips Maneri - Angles of Repose (ECM 1862) - 2004, FLAC (image+.cue), lossless
Треклист:
Maneri Phillips Maneri - Angles of Repose (ECM 1862)
Жанр: Avant-Garde / ECM
Год выпуска диска: 2004
Производитель диска: Germany
Аудио кодек: FLAC
Тип рипа: image+.cue
Битрейт аудио: lossless
Продолжительность: 1:11:17

Joe Maneri alto and tenor saxophones, clarinet
Barre Phillips double-bass
Mat Maneri viola
Number 1 - 10
Recorded May 2002
ECM 1862

 
EAC Report
Exact Audio Copy V0.99 prebeta 4 from 23. January 2008
EAC extraction logfile from 30. August 2008, 21:02
Joe Maneri / Barre Phillips / Mat Maneri / Angles of Repose
Used drive : TSSTcorpCD/DVDW SH-S182M Adapter: 2 ID: 0
Read mode : Secure
Utilize accurate stream : Yes
Defeat audio cache : Yes
Make use of C2 pointers : No
Read offset correction : 6
Overread into Lead-In and Lead-Out : No
Fill up missing offset samples with silence : Yes
Delete leading and trailing silent blocks : No
Null samples used in CRC calculations : No
Used interface : Installed external ASPI interface
Used output format : User Defined Encoder
Selected bitrate : 1024 kBit/s
Quality : High
Add ID3 tag : No
Command line compressor : C:\Program Files\Exact Audio Copy\FLAC\FLAC.EXE
Additional command line options : -6 -V -T "ARTIST=%a" -T "TITLE=%t" -T "ALBUM=%g" -T "DATE=%y" -T "TRACKNUMBER=%n" -T "GENRE=%m" -T "COMMENT=%e" %s -o %d
TOC of the extracted CD
Track | Start | Length | Start sector | End sector
---------------------------------------------------------
1 | 0:00.00 | 4:44.25 | 0 | 21324
2 | 4:44.25 | 7:39.56 | 21325 | 55805
3 | 12:24.06 | 3:28.11 | 55806 | 71416
4 | 15:52.17 | 10:10.31 | 71417 | 117197
5 | 26:02.48 | 6:41.26 | 117198 | 147298
6 | 32:43.74 | 9:33.66 | 147299 | 190339
7 | 42:17.65 | 1:08.55 | 190340 | 195494
8 | 43:26.45 | 2:32.60 | 195495 | 206954
9 | 45:59.30 | 15:38.60 | 206955 | 277364
10 | 61:38.15 | 9:39.16 | 277365 | 320805
Range status and errors
Selected range
Filename F:\z\Maneri Phillips Maneri - Angles of Repose.wav
Peak level 99.9 %
Range quality 100.0 %
Copy CRC BBBE8CD5
Copy OK
No errors occurred
AccurateRip summary
Track 1 accurately ripped (confidence 1) [B0F8FAFE]
Track 2 accurately ripped (confidence 1) [7E732703]
Track 3 accurately ripped (confidence 1) [784AB884]
Track 4 accurately ripped (confidence 1) [FFDEC9BF]
Track 5 accurately ripped (confidence 1) [1AE7DF1D]
Track 6 accurately ripped (confidence 1) [015711BF]
Track 7 accurately ripped (confidence 1) [48D11FB9]
Track 8 accurately ripped (confidence 1) [2DC4FA76]
Track 9 accurately ripped (confidence 1) [420B786B]
Track 10 accurately ripped (confidence 1) [886E50CF]
All tracks accurately ripped
End of status report
Приватный:
Нет (DHT включён)
Размер:
312.81 Мб (328,003,002 байт) » файлов: 5
Участники:
0 раздают, 0 качают (0 участников всего)
Внешние участники:
1 раздают, 0 качают (1 участников всего) [ Обновить ]
No seeders - write a personal message to user M0p94ok. Нет сидеров - пишите личное сообщение пользователю M0p94ok.
04:31
68
Нет комментариев. Ваш будет первым!