Поиск

(Jazz Avant-Garde) World Saxophone Quartet - Dances and Ballads - 1987, APE (image+.cue), lossless

(Jazz Avant-Garde) World Saxophone Quartet - Dances and Ballads - 1987, APE (image+.cue), lossless
Треклист:
World Saxophone Quartet - Dances and Ballads
Жанр: Jazz Avant-Garde
Год выпуска диска: 1987
Производитель диска: Elektra
Аудио кодек: APE
Тип рипа: image+.cue
Продолжительность: 48:58
Трэклист:
1 Sweet D Hemphill 6:35
2 For Lester Murray
3 Belly Up Lake
4 Cool Red Hemphill
5 Hattie Wall Bluiett
6 Adjacent Lake
7 West African Snap Lake
8 Full, Deep and Mellow Bluiett
9 Dance Until Dawn (For Little Anthony) Murray
10 Fast Life Murray
Доп. информация: Hamiet Bluiett Sax (Baritone), Clarinet (Alto)
Julius Hemphill Flute, Sax (Alto), Sax (Soprano)
Oliver Lake Sax (Alto), Sax (Soprano)
David Murray Clarinet (Bass), Sax (Tenor)
 
Отчёт EAC
Exact Audio Copy V0.99 prebeta 4 from 23. January 2008
EAC extraction logfile from 21. October 2008, 8:18
World Saxophone Quartet / Dances and Ballads
Used drive : _NEC CD-RW NR-9500B Adapter: 3 ID: 0
Read mode : Secure
Utilize accurate stream : Yes
Defeat audio cache : Yes
Make use of C2 pointers : No
Read offset correction : 145
Overread into Lead-In and Lead-Out : No
Fill up missing offset samples with silence : Yes
Delete leading and trailing silent blocks : No
Null samples used in CRC calculations : No
Used interface : Native Win32 interface for Win NT & 2000
Used output format : Internal WAV Routines
Sample format : 44.100 Hz; 16 Bit; Stereo
TOC of the extracted CD
Track | Start | Length | Start sector | End sector
---------------------------------------------------------
1 | 0:00.32 | 6:35.03 | 32 | 29659
2 | 6:35.35 | 4:20.47 | 29660 | 49206
3 | 10:56.07 | 6:44.33 | 49207 | 79539
4 | 17:40.40 | 5:12.47 | 79540 | 102986
5 | 22:53.12 | 4:04.68 | 102987 | 121354
6 | 26:58.05 | 4:49.57 | 121355 | 143086
7 | 31:47.62 | 3:41.48 | 143087 | 159709
8 | 35:29.35 | 3:16.52 | 159710 | 174461
9 | 38:46.12 | 7:08.55 | 174462 | 206616
10 | 45:54.67 | 3:01.10 | 206617 | 220201
Range status and errors
Selected range
Filename C:\Temp\World Saxophone Quartet - Dances and Ballads.wav
Peak level 99.7 %
Range quality 100.0 %
Copy CRC 887E1039
Copy OK
No errors occurred
AccurateRip summary
Track 1 not present in database
Track 2 not present in database
Track 3 not present in database
Track 4 not present in database
Track 5 not present in database
Track 6 not present in database
Track 7 not present in database
Track 8 not present in database
Track 9 not present in database
Track 10 not present in database
None of the tracks are present in the AccurateRip database
End of status report
World Saxophone Quartet "как много в этом звуке для сердца русского сплелось"
так что рассказывать о WSQ нет необходимости информации в сети навалом,
кто интересуется-найдет.
Вообще то говоря этот топик надо было назвать
"World Saxophone Quartet и его музыканты",предлагается след. список:
David Murray - 3D Family http://rutracker.org/forum/viewtopic.php?p=13906826#13906826
David Murray - Lovers http://rutracker.org/forum/viewtopic.php?p=13906659#13906659
Hamiet Bluiett - Im possible to Kee http://rutracker.org/forum/viewtopic.php?p=13907047#13907047
Julius Hemphill - Fat Man And The Hard Blues http://rutracker.org/forum/viewtopic.php?p=13907383#13907383
Lake, Oliver - Movement, Turns and Switches http://rutracker.org/forum/viewtopic.php?p=13907238#13907238
World Saxophone Quartet - Dances and Ballads
World Saxophone Quartet - Experience http://rutracker.org/forum/viewtopic.php?p=13906373#13906373
Приватный:
Нет (DHT включён)
Размер:
233.11 Мб (244,432,100 байт) » файлов: 7
Участники:
0 раздают, 0 качают (0 участников всего)
Внешние участники:
3 раздают, 1 качают (4 участников всего) [ Обновить ]
No seeders - write a personal message to user M0p94ok. Нет сидеров - пишите личное сообщение пользователю M0p94ok.
04:32
57
Нет комментариев. Ваш будет первым!