Поиск

(Jazz Avant-Garde) World Saxophone Quartet Experience - 2004, APE (image+.cue)

Треклист:
World Saxophone Quartet Experience
Жанр: Jazz Avant-Garde
Год выпуска диска: 2004
Производитель диска: Justin Time
Аудио кодек: APE
Тип рипа: image+.cue
Продолжительность: 57:04
Трэклист:
1 Freedom 7:14
2 If 6 Was 9 5:20
3 Hey Joe 7:10
4 Machine Gun 8:02
5 Little Wing 7:34
6 Foxey Lady 5:29
7 Hear My Train a Comin' 8:34
8 The Wind Cries Mary 7:38
Доп. информация:
 
Отчёт EAC
Exact Audio Copy V0.99 prebeta 4 from 23. January 2008
EAC extraction logfile from 21. October 2008, 7:51
World Saxophone Quartet / Experience
Used drive : _NEC CD-RW NR-9500B Adapter: 3 ID: 0
Read mode : Secure
Utilize accurate stream : Yes
Defeat audio cache : Yes
Make use of C2 pointers : No
Read offset correction : 145
Overread into Lead-In and Lead-Out : No
Fill up missing offset samples with silence : Yes
Delete leading and trailing silent blocks : No
Null samples used in CRC calculations : No
Used interface : Native Win32 interface for Win NT & 2000
Used output format : Internal WAV Routines
Sample format : 44.100 Hz; 16 Bit; Stereo
TOC of the extracted CD
Track | Start | Length | Start sector | End sector
---------------------------------------------------------
1 | 0:00.00 | 7:14.03 | 0 | 32552
2 | 7:14.03 | 5:20.03 | 32553 | 56555
3 | 12:34.06 | 7:10.22 | 56556 | 88827
4 | 19:44.28 | 8:02.08 | 88828 | 124985
5 | 27:46.36 | 7:34.60 | 124986 | 159095
6 | 35:21.21 | 5:29.16 | 159096 | 183786
7 | 40:50.37 | 8:34.09 | 183787 | 222345
8 | 49:24.46 | 7:38.20 | 222346 | 256715
Range status and errors
Selected range
Filename C:\Temp\World Saxophone Quartet - Experience.wav
Peak level 99.0 %
Range quality 99.9 %
Copy CRC 8F37C237
Copy OK
No errors occurred
AccurateRip summary
Track 1 cannot be verified as accurate (confidence 2) [2D89CE82], AccurateRip returned [1F5DB73C]
Track 2 cannot be verified as accurate (confidence 2) [2C4CCCF8], AccurateRip returned [A8CFBD24]
Track 3 cannot be verified as accurate (confidence 2) [01F587B1], AccurateRip returned [0CAB8267]
Track 4 cannot be verified as accurate (confidence 2) [CE8EE466], AccurateRip returned [FFB63639]
Track 5 cannot be verified as accurate (confidence 2) [14143202], AccurateRip returned [BC8A4474]
Track 6 cannot be verified as accurate (confidence 2) [69CF5C66], AccurateRip returned [FE1C9609]
Track 7 cannot be verified as accurate (confidence 2) [1B134B50], AccurateRip returned [7A1FC24D]
Track 8 cannot be verified as accurate (confidence 2) [7129E624], AccurateRip returned [5446957E]
No tracks could be verified as accurate
You may have a different pressing from the one(s) in the database
End of status report
Hamiet Bluiett - Sax (Baritone), Author, Group Member
Oliver Lake - Arranger, Sax (Alto), Sax (Soprano), Author, Group Member
Billy Bang - Violin
Matthew Garrison - Guitar (Bass)
Gene Lake - Drum
Начало см.http://rutracker.org/forum/viewtopic.php?t=1217755
Приватный:
Нет (DHT включён)
Размер:
361.31 Мб (378,856,375 байт) » файлов: 4
Участники:
0 раздают, 0 качают (0 участников всего)
Внешние участники:
1 раздают, 0 качают (1 участников всего) [ Обновить ]
No seeders - write a personal message to user M0p94ok. Нет сидеров - пишите личное сообщение пользователю M0p94ok.
04:32
58
Нет комментариев. Ваш будет первым!