Поиск

(Jazz Avant-Garde) David Murray Lovers - 1988, APE (image+.cue)

(Jazz Avant-Garde) David Murray Lovers - 1988, APE (image+.cue)
Треклист:
David Murray Lovers
Жанр: Jazz Avant-Garde
Год выпуска диска: 1988
Производитель диска: DIW
Аудио кодек: APE
Тип рипа: image+.cue
Продолжительность: 48:55
Трэклист:
1. Teardrops for Jimmy (Dedicated to Jimmy Garrison) Burrell
2 Lovers Murray
3 In a Sentimental Mood Ellington, Kurtz, Mills
4 Ming Murray
5 Water Colors Peterson
6 Nalungo (For Nalungo Mwanga) Mwanga
Доп. информация:
 
Отчёт EAC
Exact Audio Copy V0.99 prebeta 4 from 23. January 2008
EAC extraction logfile from 20. October 2008, 8:20
David Murray / Lovers
Used drive : _NEC CD-RW NR-9500B Adapter: 3 ID: 0
Read mode : Secure
Utilize accurate stream : Yes
Defeat audio cache : Yes
Make use of C2 pointers : No
Read offset correction : 145
Overread into Lead-In and Lead-Out : No
Fill up missing offset samples with silence : Yes
Delete leading and trailing silent blocks : No
Null samples used in CRC calculations : No
Used interface : Native Win32 interface for Win NT & 2000
Used output format : Internal WAV Routines
Sample format : 44.100 Hz; 16 Bit; Stereo
TOC of the extracted CD
Track | Start | Length | Start sector | End sector
---------------------------------------------------------
1 | 0:00.00 | 7:57.57 | 0 | 35831
2 | 7:57.57 | 7:40.20 | 35832 | 70351
3 | 15:38.02 | 8:49.00 | 70352 | 110026
4 | 24:27.02 | 9:48.50 | 110027 | 154176
5 | 34:15.52 | 6:47.63 | 154177 | 184764
6 | 41:03.40 | 7:49.67 | 184765 | 220006
Range status and errors
Selected range
Filename C:\Temp\David Murray - Lovers.wav
Peak level 100.0 %
Range quality 100.0 %
Copy CRC 2C48AC84
Copy OK
No errors occurred
AccurateRip summary
Track 1 not present in database
Track 2 not present in database
Track 3 not present in database
Track 4 not present in database
Track 5 not present in database
Track 6 not present in database
None of the tracks are present in the AccurateRip database
End of status report
Dave Burrell Piano
Fred Hopkins Bass
David Murray Sax (Tenor)
Ming Murray Photography, Cover Photo
Ralph Peterson Drums
Kazunori Sugiyama Producer
Jim Anderson Recorder
Начало см.http://rutracker.org/forum/viewtopic.php?p=13906166&rnd=1158803697#13906166
Приватный:
Нет (DHT включён)
Размер:
241.66 Мб (253,403,820 байт) » файлов: 6
Участники:
0 раздают, 0 качают (0 участников всего)
Внешние участники:
3 раздают, 1 качают (4 участников всего) [ Обновить ]
No seeders - write a personal message to user M0p94ok. Нет сидеров - пишите личное сообщение пользователю M0p94ok.
04:33
56
Нет комментариев. Ваш будет первым!