Поиск

(Jazz Avant-Garde) Oliver Lake String Project- Movement, Turns & Switches - 1997

(Jazz Avant-Garde) Oliver Lake String Project- Movement, Turns & Switches - 1997
Треклист:
Oliver Lake String Project- Movement, Turns & Switches
Жанр: Jazz Avant-Garde
Год выпуска диска: 1997
Производитель диска: Passin' Thru
Продолжительность: 49:00
Трэклист:
1 Fan Fare Bop 5:56
2 Aztec Two 8:36
3 Movement Turns & Switches 11:27
4 Reminds Me 5:13
5 Input 8:48
6 Masaai Moves 8:56
Доп. информация:
 
Отчёт EAC
Exact Audio Copy V0.99 prebeta 4 from 23. January 2008
EAC extraction logfile from 20. October 2008, 10:38
Lake, Oliver / Movement, Turns and Switches
Used drive : _NEC CD-RW NR-9500B Adapter: 3 ID: 0
Read mode : Secure
Utilize accurate stream : Yes
Defeat audio cache : Yes
Make use of C2 pointers : No
Read offset correction : 145
Overread into Lead-In and Lead-Out : No
Fill up missing offset samples with silence : Yes
Delete leading and trailing silent blocks : No
Null samples used in CRC calculations : No
Used interface : Native Win32 interface for Win NT & 2000
Used output format : Internal WAV Routines
Sample format : 44.100 Hz; 16 Bit; Stereo
TOC of the extracted CD
Track | Start | Length | Start sector | End sector
---------------------------------------------------------
1 | 0:00.00 | 5:56.25 | 0 | 26724
2 | 5:56.25 | 8:36.55 | 26725 | 65479
3 | 14:33.05 | 11:27.35 | 65480 | 117039
4 | 26:00.40 | 5:13.02 | 117040 | 140516
5 | 31:13.42 | 8:48.35 | 140517 | 180151
6 | 40:02.02 | 8:56.63 | 180152 | 220414
Range status and errors
Selected range
Filename C:\Temp\Lake, Oliver - Movement, Turns and Switches.wav
Peak level 97.7 %
Range quality 99.9 %
Copy CRC DD839898
Copy OK
No errors occurred
AccurateRip summary
Track 1 not present in database
Track 2 not present in database
Track 3 not present in database
Track 4 not present in database
Track 5 not present in database
Track 6 not present in database
None of the tracks are present in the AccurateRip database
End of status report
Kenyata Beasley Trumpet
Sandra Billingslea Violin
Belden Bullock Double Bass, Contrabass
Regina Carter Violin
Neil Clarke Conga
Eileen Folson Cello
Donal Fox Piano
Ashley Horne Violin
Oliver Lake Sax (Alto), Producer
Maxine Roach Viola
Начало см. http://rutracker.org/forum/viewtopic.php?t=1217755
Приватный:
Нет (DHT включён)
Размер:
234.56 Мб (245,955,438 байт) » файлов: 6
Участники:
0 раздают, 0 качают (0 участников всего)
Внешние участники:
1 раздают, 0 качают (1 участников всего) [ Обновить ]
No seeders - write a personal message to user M0p94ok. Нет сидеров - пишите личное сообщение пользователю M0p94ok.
04:34
61
Нет комментариев. Ваш будет первым!