Поиск

(Jazz Avant-Garde) Julius Hemphill - Fat Man And The Hard Blues - 1991, APE (image+.cue)

(Jazz Avant-Garde) Julius Hemphill - Fat Man And The Hard Blues - 1991, APE (image+.cue)
Треклист:
Julius Hemphill - Fat Man And The Hard Blues
Жанр: Jazz Avant-Garde
Год выпуска диска: 1991
Производитель диска: Black Saint
Аудио кодек: APE
Тип рипа: image+.cue
Продолжительность: 55:17
Трэклист:
1 Otis' Groove 3:00
2 Lenny 2:33
3 Floppy 2:50
4 Opening 4:07
5 Headlines 2:59
6 Four Saints 2:45
7 Fat Man 5:16
8 Glide 4:32
9 Tendrils 6:18
10 Anchorman 4:41
11 5:10
12 Three-Step 2:00
13 The Answer 2:18
14 The Hard Blues 6:40
Доп. информация:
 
Отчёт EAC
Exact Audio Copy V0.99 prebeta 4 from 23. January 2008
EAC extraction logfile from 21. October 2008, 2:06
Julius Hemphill / Fat Man And The Hard Blues
Used drive : _NEC CD-RW NR-9500B Adapter: 3 ID: 0
Read mode : Secure
Utilize accurate stream : Yes
Defeat audio cache : Yes
Make use of C2 pointers : No
Read offset correction : 145
Overread into Lead-In and Lead-Out : No
Fill up missing offset samples with silence : Yes
Delete leading and trailing silent blocks : No
Null samples used in CRC calculations : No
Used interface : Native Win32 interface for Win NT & 2000
Used output format : Internal WAV Routines
Sample format : 44.100 Hz; 16 Bit; Stereo
TOC of the extracted CD
Track | Start | Length | Start sector | End sector
---------------------------------------------------------
1 | 0:00.33 | 3:00.52 | 33 | 13584
2 | 3:01.10 | 2:33.65 | 13585 | 25124
3 | 5:35.00 | 2:50.05 | 25125 | 37879
4 | 8:25.05 | 4:07.35 | 37880 | 56439
5 | 12:32.40 | 2:59.23 | 56440 | 69887
6 | 15:31.63 | 2:45.70 | 69888 | 82332
7 | 18:17.58 | 5:16.17 | 82333 | 106049
8 | 23:34.00 | 4:32.58 | 106050 | 126507
9 | 28:06.58 | 6:18.32 | 126508 | 154889
10 | 34:25.15 | 4:41.18 | 154890 | 175982
11 | 39:06.33 | 5:10.22 | 175983 | 199254
12 | 44:16.55 | 2:00.05 | 199255 | 208259
13 | 46:16.60 | 2:18.48 | 208260 | 218657
14 | 48:35.33 | 6:39.74 | 218658 | 248656
Range status and errors
Selected range
Filename C:\Temp\Julius Hemphill - Fat Man And The Hard Blues.wav
Peak level 96.9 %
Range quality 100.0 %
Copy CRC 6FE12A0A
Copy OK
No errors occurred
AccurateRip summary
Track 1 not present in database
Track 2 not present in database
Track 3 not present in database
Track 4 not present in database
Track 5 not present in database
Track 6 not present in database
Track 7 not present in database
Track 8 not present in database
Track 9 not present in database
Track 10 not present in database
Track 11 not present in database
Track 12 not present in database
Track 13 not present in database
Track 14 not present in database
None of the tracks are present in the AccurateRip database
End of status report
James Carter Sax (Tenor)
Marty Ehrlich Flute, Sax (Alto), Sax (Soprano)
Sam Furnace Sax (Baritone)
Carl Grubbs Sax (Alto), Sax (Soprano)
Julius Hemphill Flute, Sax (Alto), Sax (Soprano), Producer
Andrew White Sax (Tenor)
Начало см. http://rutracker.org/forum/viewtopic.php?p=13906166&rnd=872628426#13906166
Приватный:
Нет (DHT включён)
Размер:
281.69 Мб (295,377,078 байт) » файлов: 4
Участники:
0 раздают, 0 качают (0 участников всего)
Внешние участники:
3 раздают, 1 качают (4 участников всего) [ Обновить ]
No seeders - write a personal message to user M0p94ok. Нет сидеров - пишите личное сообщение пользователю M0p94ok.
04:34
104
Нет комментариев. Ваш будет первым!