Вы используете незарегистрированную версию компонента "Вкладки"!

Поиск

(Modern Creative/Free improvisation) Robert Mazurek - Playground.(Chicago Underground Orchestra) - 1998, FLAC (image+.cue), lossless

Треклист:
Robert Mazurek - Playground.(Chicago Underground Orchestra)
Жанр: Modern Creative/Free improvisation
Год выпуска диска: 1998
Производитель диска: USA (Delmark)
Аудио кодек: FLAC
Тип рипа: image+.cue
Битрейт аудио: lossless
Продолжительность: 68:11
Источник: свой диск
Трэклист:
01 Blow Up
02 Flamingos Dancing on Luminescent Moonbeams
03 Boiled Over
04 Le Sucrier Velours
05 Component Changes
06 Playground
07 Jeff's New Idea
08 The Inner Soul of H
09 Whitney
10 Ostinato
Доп. информация:
Chris Lopes - Bass, Flute, Vocals
Chad Taylor - Drums
Sara P. Smith - Trombone, Glockenspiel, Vocals, Cymbal
Rob Mazurek - Producer, Cornet, Bells, Flute, Trumpet
Jeff Parker - Guitar, Cowbell
Recorded By, Mixed By - Bundy K. Brown
Producer - Robert G. Koester
 
отчёт ЕАС
Exact Audio Copy V0.99 prebeta 5 from 4. May 2009
EAC extraction logfile from 13. April 2010, 11:02
Robert Mazurek - Chicago Underground Orchestra / Playground
Used drive : Optiarc DVD RW AD-5200S Adapter: 1 ID: 0
Read mode : Secure
Utilize accurate stream : Yes
Defeat audio cache : Yes
Make use of C2 pointers : No
Read offset correction : 48
Overread into Lead-In and Lead-Out : No
Fill up missing offset samples with silence : Yes
Delete leading and trailing silent blocks : No
Null samples used in CRC calculations : Yes
Used interface : Installed external ASPI interface
Used output format : User Defined Encoder
Selected bitrate : 192 kBit/s
Quality : High
Add ID3 tag : No
Command line compressor : C:\Program Files\Burrrn\flac.exe
Additional command line options : -T "DATE=%y" -T "GENRE=%m" -8 -V %s
TOC of the extracted CD
Track | Start | Length | Start sector | End sector
---------------------------------------------------------
1 | 0:00.00 | 8:17.30 | 0 | 37304
2 | 8:17.30 | 7:43.42 | 37305 | 72071
3 | 16:00.72 | 8:08.65 | 72072 | 108736
4 | 24:09.62 | 2:06.38 | 108737 | 118224
5 | 26:16.25 | 6:23.00 | 118225 | 146949
6 | 32:39.25 | 10:38.22 | 146950 | 194821
7 | 43:17.47 | 6:34.40 | 194822 | 224411
8 | 49:52.12 | 3:02.68 | 224412 | 238129
9 | 52:55.05 | 7:07.72 | 238130 | 270226
10 | 60:03.02 | 8:08.10 | 270227 | 306836
Range status and errors
Selected range
Filename F:\EAC\Новая папка (2)\Robert Mazurek - Chicago Underground Orchestra - Playground.wav
Peak level 99.7 %
Range quality 100.0 %
Copy CRC 6A470B77
Copy OK
No errors occurred
AccurateRip summary
Track 1 cannot be verified as accurate (confidence 2) [BECA6223], AccurateRip returned [AA146843]
Track 2 cannot be verified as accurate (confidence 2) [F1530B90], AccurateRip returned [D88475DA]
Track 3 cannot be verified as accurate (confidence 2) [C4E443D3], AccurateRip returned [386014E3]
Track 4 cannot be verified as accurate (confidence 2) [BBBD4147], AccurateRip returned [B0411CBF]
Track 5 cannot be verified as accurate (confidence 2) [043F0EFE], AccurateRip returned [2332279F]
Track 6 cannot be verified as accurate (confidence 2) [3AFE1430], AccurateRip returned [ABD92922]
Track 7 cannot be verified as accurate (confidence 2) [05F67666], AccurateRip returned [6CE84983]
Track 8 cannot be verified as accurate (confidence 2) [8F00DEC1], AccurateRip returned [38905A57]
Track 9 cannot be verified as accurate (confidence 2) [F95C23DF], AccurateRip returned [794F0D04]
Track 10 cannot be verified as accurate (confidence 2) [8C91B6F9], AccurateRip returned [F8D8D7D0]
No tracks could be verified as accurate
You may have a different pressing from the one(s) in the database
End of status report
По всем вопросам пишите личное сообщение пользователю M0p94ok.
21:11
166
Нет комментариев. Ваш будет первым!