Поиск

(Free Improvisation) John Edwards - Volume - 2008, FLAC (tracks+.cue), lossless

(Free Improvisation) John Edwards - Volume - 2008, FLAC (tracks+.cue), lossless
Треклист:
John Edwards - Volume
Жанр: Free Improvisation
Год выпуска диска: 2008
Производитель диска: psi (psi 08.09)
Источник: вот.сиди (pjc)
Аудио кодек: FLAC
Тип рипа: tracks+.cue
Битрейт аудио: lossless
Продолжительность: 53:28
Трэклист:
1. Matter (7.27)
2. Pin Drop (7.02)
3. Sprung (8.45)
4. Saddle (5.33)
5. Tunnel (7.33)
6. Half Full (4.08)
7. Battery (1.56)
8. From The Depths (3.25)
9. Meshes (7.40)
Recorded and edited at Utterpsalm Studio, London January 24th 2008 using two Neumann K100 microphones onto DAT
John Edwards, double bass
 
Рецензия с сайта http://improv-noise.org/
Лицом и статью контрабасист Джон Эдвардс схож с мэтром фолк-оппозиции Питом Сигером. Пусть на деке его инструмента не начертано лозунгов, социальные ориентиры музыканта очевидны. За пятнадцать лет активности на британской и мировой импровизационных сценах Эдвардс успел записать более двухсот альбомов, выступая в составах больших и малых. Как отмечают коллеги, в числе которых и российские музыканты, Джон Эдвардс – идеальный партнер, виртуоз коллективных действий. Внимательный, тактичный, немногословный. Высокая ли ангажированность тому виной или природная скромность, но Volume первый и единственный сольный альбом контрабасиста.
В соответствие с законами жанра, девять пьес записаны за одну сессию. Электронных устройств не применяли, “объектами” не пользовались. Но, несмотря на столь жесткие условия, в итоге получилась очень разнообразная и весьма недурная пластинка. Единственный недостаток – хаотичная “верстка” альбома. Играющая роль швейцара Matter вышла слишком путанной и шумной, следующая за ней Pin drop перенасыщена перкуссией, сквозь дыры в которой зияют пустоты. Ситуацию исправляет Sprung – бодрая, с почти постоянным темпом и внятными рефренами. Дальше все идет, как по маслу, слушается на одном дыхании. Кульминационный номером программы выступает многоуровневая этажерка Tunnel, концентрат авторской мысли и апогей технического мастерства. Приз персональных симпатий рецензента получает короткометражный жестокий романс From the depths, способный расколоть надвое и контрабас, и акустические системы.
Альбом Volume, первая попытка автономного плавания Джона Эдвардса, наглядно демонстрирует, что слухи о кризисе в среде импровизаторов “старой школы” преувеличены. Исхоженное вдоль и поперек, это поле экспериментов – не только полигон для методик и технологий, но и территория для неспешных прогулок. Интерзона стилей, мнений и предпочтений.
 
Отчёт EAC
Exact Audio Copy V0.99 prebeta 5 from 4. May 2009
EAC extraction logfile from 5. April 2010, 12:03
John Edwards / Volume
Used drive : HL-DT-STDVDRAM GSA-4167B Adapter: 0 ID: 0
Read mode : Secure
Utilize accurate stream : Yes
Defeat audio cache : Yes
Make use of C2 pointers : No
Read offset correction : 667
Overread into Lead-In and Lead-Out : No
Fill up missing offset samples with silence : Yes
Delete leading and trailing silent blocks : No
Null samples used in CRC calculations : Yes
Used interface : Installed external ASPI interface
Gap handling : Appended to previous track
Used output format : User Defined Encoder
Selected bitrate : 768 kBit/s
Quality : High
Add ID3 tag : No
Command line compressor : C:\Program Files\Exact Audio Copy\FLAC\FLAC.EXE
Additional command line options : -V -8 -T "artist=%a" -T "title=%t" -T "album=%g" -T "date=%y" -T "tracknumber=%n" -T "genre=%m" %s
TOC of the extracted CD
Track | Start | Length | Start sector | End sector
---------------------------------------------------------
1 | 0:00.00 | 7:26.59 | 0 | 33508
2 | 7:26.59 | 7:01.71 | 33509 | 65154
3 | 14:28.55 | 8:44.66 | 65155 | 104520
4 | 23:13.46 | 5:32.69 | 104521 | 129489
5 | 28:46.40 | 7:33.03 | 129490 | 163467
6 | 36:19.43 | 4:08.00 | 163468 | 182067
7 | 40:27.43 | 1:55.56 | 182068 | 190748
8 | 42:23.24 | 3:24.64 | 190749 | 206112
9 | 45:48.13 | 7:39.62 | 206113 | 240599
Track 1
Filename G:\flac\John Edwards - Volume\01 - John Edwards - Matter.wav
Pre-gap length 0:00:02.00
Peak level 100.0 %
Track quality 100.0 %
Test CRC 12AAD56E
Copy CRC 12AAD56E
Accurately ripped (confidence 2) [D9E13BEF]
Copy OK
Track 2
Filename G:\flac\John Edwards - Volume\02 - John Edwards - Pin Drop.wav
Pre-gap length 0:00:04.00
Peak level 76.2 %
Track quality 100.0 %
Test CRC 479FAA99
Copy CRC 479FAA99
Accurately ripped (confidence 2) [E39875FF]
Copy OK
Track 3
Filename G:\flac\John Edwards - Volume\03 - John Edwards - Sprung.wav
Pre-gap length 0:00:05.00
Peak level 93.4 %
Track quality 100.0 %
Test CRC 73298936
Copy CRC 73298936
Accurately ripped (confidence 2) [9AFB45F6]
Copy OK
Track 4
Filename G:\flac\John Edwards - Volume\04 - John Edwards - Saddle.wav
Pre-gap length 0:00:04.00
Peak level 90.0 %
Track quality 100.0 %
Test CRC E802684A
Copy CRC E802684A
Accurately ripped (confidence 2) [78FF31A4]
Copy OK
Track 5
Filename G:\flac\John Edwards - Volume\05 - John Edwards - Tunnel.wav
Pre-gap length 0:00:04.00
Peak level 97.5 %
Track quality 100.0 %
Test CRC 3FB7B95D
Copy CRC 3FB7B95D
Accurately ripped (confidence 2) [22345471]
Copy OK
Track 6
Filename G:\flac\John Edwards - Volume\06 - John Edwards - Half Full.wav
Pre-gap length 0:00:03.00
Peak level 83.4 %
Track quality 100.0 %
Test CRC FC1D71C6
Copy CRC FC1D71C6
Accurately ripped (confidence 2) [58F71965]
Copy OK
Track 7
Filename G:\flac\John Edwards - Volume\07 - John Edwards - Battery.wav
Pre-gap length 0:00:04.00
Peak level 97.7 %
Track quality 100.0 %
Test CRC 5DDC3DAE
Copy CRC 5DDC3DAE
Accurately ripped (confidence 2) [F54CECBE]
Copy OK
Track 8
Filename G:\flac\John Edwards - Volume\08 - John Edwards - From The Depths.wav
Pre-gap length 0:00:05.00
Peak level 57.0 %
Track quality 99.9 %
Test CRC DF47F855
Copy CRC DF47F855
Accurately ripped (confidence 2) [4138A58D]
Copy OK
Track 9
Filename G:\flac\John Edwards - Volume\09 - John Edwards - Meshes.wav
Pre-gap length 0:00:04.00
Peak level 100.0 %
Track quality 100.0 %
Test CRC DCC182A5
Copy CRC DCC182A5
Accurately ripped (confidence 2) [0EBF47D0]
Copy OK
All tracks accurately ripped
No errors occurred
End of status report
 
cue
REM GENRE Avantgarde
REM DATE 2008
REM DISCID 800C8809
REM COMMENT "ExactAudioCopy v0.99pb5"
PERFORMER "John Edwards"
TITLE "Volume"
FILE "01 - John Edwards - Matter.wav" WAVE
TRACK 01 AUDIO
TITLE "Matter"
PERFORMER "John Edwards"
INDEX 01 00:00:00
TRACK 02 AUDIO
TITLE "Pin Drop"
PERFORMER "John Edwards"
INDEX 00 07:22:59
FILE "02 - John Edwards - Pin Drop.wav" WAVE
INDEX 01 00:00:00
TRACK 03 AUDIO
TITLE "Sprung"
PERFORMER "John Edwards"
INDEX 00 06:56:71
FILE "03 - John Edwards - Sprung.wav" WAVE
INDEX 01 00:00:00
TRACK 04 AUDIO
TITLE "Saddle"
PERFORMER "John Edwards"
INDEX 00 08:40:66
FILE "04 - John Edwards - Saddle.wav" WAVE
INDEX 01 00:00:00
TRACK 05 AUDIO
TITLE "Tunnel"
PERFORMER "John Edwards"
INDEX 00 05:28:69
FILE "05 - John Edwards - Tunnel.wav" WAVE
INDEX 01 00:00:00
TRACK 06 AUDIO
TITLE "Half Full"
PERFORMER "John Edwards"
INDEX 00 07:30:03
FILE "06 - John Edwards - Half Full.wav" WAVE
INDEX 01 00:00:00
TRACK 07 AUDIO
TITLE "Battery"
PERFORMER "John Edwards"
INDEX 00 04:04:00
FILE "07 - John Edwards - Battery.wav" WAVE
INDEX 01 00:00:00
TRACK 08 AUDIO
TITLE "From The Depths"
PERFORMER "John Edwards"
INDEX 00 01:50:56
FILE "08 - John Edwards - From The Depths.wav" WAVE
INDEX 01 00:00:00
TRACK 09 AUDIO
TITLE "Meshes"
PERFORMER "John Edwards"
INDEX 00 03:20:64
FILE "09 - John Edwards - Meshes.wav" WAVE
INDEX 01 00:00:00
 
Отчёт Audiocheckera
AUDIOCHECKER v1.2 - by Dester - opdester@freemail.hu
~~~~~~~~~~~~~~~~~
1 -===- H:\Песеньки\lossless\john edwards\volume\01 - John Edwards - Matter.flac
Extracted successfully
Conclusion: This track looks like MPEG with probability 95%
2 -===- H:\Песеньки\lossless\john edwards\volume\02 - John Edwards - Pin Drop.flac
Extracted successfully
Conclusion: This track looks like CDDA with probability 43%
3 -===- H:\Песеньки\lossless\john edwards\volume\03 - John Edwards - Sprung.flac
Extracted successfully
Conclusion: This track looks like CDDA with probability 43%
4 -===- H:\Песеньки\lossless\john edwards\volume\04 - John Edwards - Saddle.flac
Extracted successfully
Conclusion: This track looks like CDDA with probability 99%
5 -===- H:\Песеньки\lossless\john edwards\volume\05 - John Edwards - Tunnel.flac
Extracted successfully
Conclusion: This track looks like MPEG with probability 95%
6 -===- H:\Песеньки\lossless\john edwards\volume\06 - John Edwards - Half Full.flac
Extracted successfully
Conclusion: This track looks like CDDA with probability 100%
7 -===- H:\Песеньки\lossless\john edwards\volume\07 - John Edwards - Battery.flac
Extracted successfully
Conclusion: This track looks like MPEG with probability 95%
8 -===- H:\Песеньки\lossless\john edwards\volume\08 - John Edwards - From The Depths.flac
Extracted successfully
Conclusion: This track looks like CDDA with probability 86%
9 -===- H:\Песеньки\lossless\john edwards\volume\09 - John Edwards - Meshes.flac
Extracted successfully
Conclusion: This track looks like MPEG with probability 92%
 
Спектры файлов, не определившихся как CDDA
По всем вопросам пишите личное сообщение пользователю M0p94ok.
21:10
227
Нет комментариев. Ваш будет первым!