Поиск

(Modern Creative/Free improvisation) Rob Mazurek - Silver Spines - 2002, FLAC (image+.cue), lossless

Треклист:
Rob Mazurek - Silver Spines
Жанр: Modern Creative/Free improvisation
Год выпуска диска: 2002
Производитель диска: USA (Delmark)
Аудио кодек: FLAC
Тип рипа: image+.cue
Битрейт аудио: lossless
Продолжительность: 68:48
Источник: свой диск
Трэклист:
01 Moving Through And Back Again
02 Cloth And Bells Cut 3:16-3:44
03 Breathe And Silver Spines Contained
04 Birds Song & So Sang To Them
05 Patterns And Fixations Along The Path Of Seeing Red
06 Feel And...Ardeel...Feeling Hard...Falling Harder
07 Haphazard Half Hazardous
08 For, Love (No Burst In Beginning)
09 Through The Window There Was A Green And Blue Dress
10 Metal Monsters Never Fail Me Now
11 Composition 56 In The 4th Place And Still Looking
12 Them Sang So & Song Birds
13 Remember The Time It Spun out And Fell Into Itself
14 Quietly Sleeping
15 How Time Turns In On Itself (Or) That Thought I Had Next Thrusday
16 Underwater And Trying To Find The Stars
17 Still Looking But Not Breathing
18 Love, For (Slight Burst At The Beginning)
Доп. информация:
Personnel: Rob Mazurek (cornet, Moog synthesizer, tubular bells); Casey Rice (synthesizer, sound effects)
Recorded at Riverside Sound, Chicago, Illinois.
 
отчёт ЕАС
Exact Audio Copy V0.99 prebeta 5 from 4. May 2009
EAC extraction logfile from 13. April 2010, 11:33
Rob Mazurek / Silver Spines
Used drive : Optiarc DVD RW AD-5200S Adapter: 1 ID: 0
Read mode : Secure
Utilize accurate stream : Yes
Defeat audio cache : Yes
Make use of C2 pointers : No
Read offset correction : 48
Overread into Lead-In and Lead-Out : No
Fill up missing offset samples with silence : Yes
Delete leading and trailing silent blocks : No
Null samples used in CRC calculations : Yes
Used interface : Installed external ASPI interface
Used output format : User Defined Encoder
Selected bitrate : 192 kBit/s
Quality : High
Add ID3 tag : No
Command line compressor : C:\Program Files\Burrrn\flac.exe
Additional command line options : -T "DATE=%y" -T "GENRE=%m" -8 -V %s
TOC of the extracted CD
Track | Start | Length | Start sector | End sector
---------------------------------------------------------
1 | 0:00.00 | 6:51.57 | 0 | 30881
2 | 6:51.57 | 3:23.00 | 30882 | 46106
3 | 10:14.57 | 3:41.35 | 46107 | 62716
4 | 13:56.17 | 4:10.28 | 62717 | 81494
5 | 18:06.45 | 4:49.37 | 81495 | 103206
6 | 22:56.07 | 6:21.68 | 103207 | 131849
7 | 29:18.00 | 3:24.25 | 131850 | 147174
8 | 32:42.25 | 2:47.45 | 147175 | 159744
9 | 35:29.70 | 3:46.60 | 159745 | 176754
10 | 39:16.55 | 3:23.45 | 176755 | 192024
11 | 42:40.25 | 3:43.45 | 192025 | 208794
12 | 46:23.70 | 2:20.70 | 208795 | 219364
13 | 48:44.65 | 5:25.37 | 219365 | 243776
14 | 54:10.27 | 1:23.00 | 243777 | 250001
15 | 55:33.27 | 9:05.53 | 250002 | 290929
16 | 64:39.05 | 2:20.22 | 290930 | 301451
17 | 66:59.27 | 0:47.60 | 301452 | 305036
18 | 67:47.12 | 1:01.15 | 305037 | 309626
Range status and errors
Selected range
Filename F:\EAC\Новая папка (3)\Rob Mazurek - Silver Spines.wav
Peak level 99.8 %
Range quality 100.0 %
Copy CRC C6A2B295
Copy OK
No errors occurred
AccurateRip summary
Track 1 not present in database
Track 2 not present in database
Track 3 not present in database
Track 4 not present in database
Track 5 not present in database
Track 6 not present in database
Track 7 not present in database
Track 8 not present in database
Track 9 not present in database
Track 10 not present in database
Track 11 not present in database
Track 12 not present in database
Track 13 not present in database
Track 14 not present in database
Track 15 not present in database
Track 16 not present in database
Track 17 not present in database
Track 18 not present in database
None of the tracks are present in the AccurateRip database
End of status report
По всем вопросам пишите личное сообщение пользователю M0p94ok.
21:12
193
Нет комментариев. Ваш будет первым!