Поиск

(Modern Creative, World Music, Koto, Tzadik) Mori Chieko (ソロアルバム) - Jumping Rabbit - 2005, FLAC (tracks+.cue), lossless

(Modern Creative, World Music, Koto, Tzadik) Mori Chieko (ソロアルバム) - Jumping Rabbit - 2005, FLAC (tracks+.cue), lossless
Треклист:
Mori Chieko (ソロアルバム) - Jumping Rabbit
Жанр: Modern Creative, World Music, Koto, Tzadik
Год выпуска диска: 2005
Производитель диска: US
Аудио кодек: FLAC
Тип рипа: tracks+.cue
Битрейт аудио: lossless
Продолжительность: 46:28
Трэклист:
1 Fly Away (5:57)
2 Jumping Rabbit (8:06)
3 Moon Park (4:23)
4 Midnight Forest (2:53)
5 Quiet Church (4:04)
6 Paper Airplane (4:08)
7 Charm Music Box (9:43)
8 Red+Balloon (1:33)
9 Dreams (5:41)
Koto, Ju-shichigen, Voice - Mori Chieko
Доп. информация:
 
EAC log
Exact Audio Copy V0.99 prebeta 4 from 23. January 2008
EAC Auslese-Logdatei vom 14. Juni 2008, 12:42
Mori Chieko / Jumping Rabbit
Benutztes Laufwerk : HL-DT-STDVDRAM GSA-H10N Adapter: 0 ID: 1
Lesemodus : Sicher
Benutze Accurate Stream : Ja
Audio Puffer abgeschaltet : Ja
Benutze C2 Fehlerinformationen : Nein
Leseoffset Korrektur : 667
Ьberlesen in das Lead-In und Lead-Out : Nein
Fьlle fehlende Offsetsample mit Stille auf : Ja
Lцsche fьhrende und nachfolgende stille Blцcke : Nein
Null Samples gehen in CRC Berechnungen ein : Ja
Benutzte Schnittstelle : Natьrliche Win32 Schnittstelle fьr Win NT/2000/XP
Pausenbehandlung : Hinter dem vorigen Track angehдngt
Benutztes Ausgabeformat : Benutzerdefinierter Komprimierer
Gewдhlte Bitrate : 320 kBit/s
Qualitдt : Hoch
Fьge ID3 Tag hinzu : Nein
Kommandozeilen Komprimierer : C:\Programme\Exact Audio Copy\Flac\flac.exe
Zusдtzliche Kommandozeilenoptionen : -8 -A tukey(0.25) -A gauss(0.1875) -b 4096 -V -T "artist=%a" -T "title=%t" -T "album=%g" -T "date=%y" -T "tracknumber=%n" -T "genre=%m" %s --sector-align
TOC der ausgelesenen CD
Track | Start | Lдnge | Startsektor | Endsektor
-------------------------------------------------------
1 | 0:00.00 | 5:57.12 | 0 | 26786
2 | 5:57.12 | 8:05.73 | 26787 | 63234
3 | 14:03.10 | 4:22.46 | 63235 | 82930
4 | 18:25.56 | 2:53.20 | 82931 | 95925
5 | 21:19.01 | 4:04.19 | 95926 | 114244
6 | 25:23.20 | 4:07.67 | 114245 | 132836
7 | 29:31.12 | 9:42.54 | 132837 | 176540
8 | 39:13.66 | 1:32.44 | 176541 | 183484
9 | 40:46.35 | 5:41.21 | 183485 | 209080
Track 1
Dateiname E:\Skull VI\Mori Chieko - Jumping Rabbit [tzadik, 2005] flac\01 Fly Away .wav
Pausenlдnge 0:00:02.00
Spitzenpegel 98.8 %
Track Qualitдt 100.0 %
Kopie CRC AB038737
Track ist nicht enthalten in der AccurateRip Datenbank
Kopie OK
Track 2
Dateiname E:\Skull VI\Mori Chieko - Jumping Rabbit [tzadik, 2005] flac\02 Jumping Rabbit .wav
Pausenlдnge 0:00:03.38
Spitzenpegel 100.0 %
Track Qualitдt 100.0 %
Kopie CRC 17A497D3
Track ist nicht enthalten in der AccurateRip Datenbank
Kopie OK
Track 3
Dateiname E:\Skull VI\Mori Chieko - Jumping Rabbit [tzadik, 2005] flac\03 Moon Park .wav
Pausenlдnge 0:00:01.17
Spitzenpegel 98.8 %
Track Qualitдt 100.0 %
Kopie CRC C7ACC44E
Track ist nicht enthalten in der AccurateRip Datenbank
Kopie OK
Track 4
Dateiname E:\Skull VI\Mori Chieko - Jumping Rabbit [tzadik, 2005] flac\04 Midnight Forest .wav
Spitzenpegel 98.8 %
Track Qualitдt 100.0 %
Kopie CRC 8D9B9F0E
Track ist nicht enthalten in der AccurateRip Datenbank
Kopie OK
Track 5
Dateiname E:\Skull VI\Mori Chieko - Jumping Rabbit [tzadik, 2005] flac\05 Quiet Church .wav
Spitzenpegel 98.8 %
Track Qualitдt 100.0 %
Kopie CRC A8FE84C0
Track ist nicht enthalten in der AccurateRip Datenbank
Kopie OK
Track 6
Dateiname E:\Skull VI\Mori Chieko - Jumping Rabbit [tzadik, 2005] flac\06 Paper Airplane .wav
Spitzenpegel 98.8 %
Track Qualitдt 100.0 %
Kopie CRC B5A57A71
Track ist nicht enthalten in der AccurateRip Datenbank
Kopie OK
Track 7
Dateiname E:\Skull VI\Mori Chieko - Jumping Rabbit [tzadik, 2005] flac\07 Charm Music Box .wav
Spitzenpegel 98.8 %
Track Qualitдt 100.0 %
Kopie CRC 4D8F91C9
Track ist nicht enthalten in der AccurateRip Datenbank
Kopie OK
Track 8
Dateiname E:\Skull VI\Mori Chieko - Jumping Rabbit [tzadik, 2005] flac\08 Red+Ballon .wav
Spitzenpegel 98.8 %
Track Qualitдt 100.0 %
Kopie CRC ADED89A1
Track ist nicht enthalten in der AccurateRip Datenbank
Kopie OK
Track 9
Dateiname E:\Skull VI\Mori Chieko - Jumping Rabbit [tzadik, 2005] flac\09 Dreams .wav
Spitzenpegel 98.8 %
Track Qualitдt 100.0 %
Kopie CRC 0CB03CF1
Track ist nicht enthalten in der AccurateRip Datenbank
Kopie OK
Keiner der Tracks ist in der AccurateRip Datenbank vorhanden
Keine Fehler aufgetreten
Ende des Statusreports
 
Tzadik
Studying koto since the age of three, Mori Chieko is one of the world’s most versatile koto virtuosos. She has spent long periods in Italy, London and the United States, collaborated with Michael Galasso, and created music for dance, film and theater, including several productions by Robert Wilson. Her first CD for Tzadik was recorded in both Italy and New York, and presents a beautiful series of pieces for solo koto, and koto and voice. Lyrical and meditative, Jumping Rabbit is a CD of remarkable beauty and heartfelt emotions.
 
что такое Кото
Download available for power users only.
04:44
218
Нет комментариев. Ваш будет первым!