Поиск

(Avant-Garde Jazz, Jewish Music, Instrumental Rock, Tzadik) Rashanim - Shalosh - 2006, APE (image+.cue), lossless

(Avant-Garde Jazz, Jewish Music, Instrumental Rock, Tzadik) Rashanim - Shalosh - 2006, APE (image+.cue), lossless
Треклист:
Rashanim - Shalosh

Жанр: Avant-Garde Jazz, Jewish Music, Instrumental Rock
Год выпуска диска: 2006
Производитель диска: USA
Аудио кодек: APE
Тип рипа: image+.cue
Битрейт аудио: lossless
Продолжительность: 51:45
Трэклист:
1. Ein Gedi (4:30)
2. Yosefa (5:33)
3. Atbash (4:52)
4. Da'At (5:27)
5. Cracow Niggun (5:49)
6. Kavanah (5:47)
7. Jacob and Esau (2:25)
8. Jerusalem (5:12)
9. Ur Ur Lauter Georg (7:42)
10. Ar Aare (4:24)
Доп. информация:
Shanir Ezra Blumenkranz: Electric Bass, Upright Bass, Oud, Gimbri
Jon Madof: Guitars
Mathias Künzli: Drums, Percussion
Оригинальный диск TZADIK
 
Отчёт EAC
Exact Audio Copy V0.99 prebeta 4 from 23. January 2008
Отчёт EAC об извлечении, выполненном 11. февраля 2009, 22:28
Rashanim / Shalosh
Дисковод: TEAC DV-W28SLCTF Adapter: 4 ID: 1
Режим чтения : Достоверность
Использование точного потока : Да
Отключение кэша аудио : Да
Использование указателей C2 : Нет
Коррекция смещения при чтении : 48
Способность читать области Lead-in и Lead-out : Нет
Заполнение пропущенных сэмплов тишиной : Да
Удаление блоков с тишиной в начале и конце : Нет
При вычислениях CRC использовались нулевые сэмплы : Да
Интерфейс : Установленный внешний ASPI-интерфейс
Выходной формат : Внутренние WAV-операции
Формат сэмплов : 44.100 Гц; 16 бит; стерео
TOC извлечённого CD
Трек | Старт | Длительность | Начальный сектор | Конечный сектор
---------------------------------------------------------------------
1 | 0:00.00 | 4:31.57 | 0 | 20381
2 | 4:31.57 | 5:33.61 | 20382 | 45417
3 | 10:05.43 | 4:52.15 | 45418 | 67332
4 | 14:57.58 | 5:27.53 | 67333 | 91910
5 | 20:25.36 | 5:49.33 | 91911 | 118118
6 | 26:14.69 | 5:46.39 | 118119 | 144107
7 | 32:01.33 | 2:24.62 | 144108 | 154969
8 | 34:26.20 | 5:11.42 | 154970 | 178336
9 | 39:37.62 | 7:43.48 | 178337 | 213109
10 | 47:21.35 | 4:23.68 | 213110 | 232902
Характеристики диапазона извлечения и сообщения об ошибках
Выбранный диапазон
Имя файла \\192.168.0.1\8194\раздачи\shalosh\Rashanim - Shalosh.wav
Пиковый уровень 97.7 %
Качество диапазона 100.0 %
CRC копии CA102F3F
Копирование... OK
Ошибок не произошло
Конец отчёта
04:44
266
Нет комментариев. Ваш будет первым!