Поиск

(Jazz / Ethnic Jazz) Mukta - Invisible Worlds - 2008, FLAC (tracks+.cue), lossless

(Jazz / Ethnic Jazz) Mukta - Invisible Worlds - 2008, FLAC (tracks+.cue), lossless
Треклист:
Mukta - Invisible Worlds
Жанр: Jazz / Ethnic Jazz
Лейбл: MVS RECORDS
Год выпуска : 2008
Аудио кодек: FLAC
Тип рипа: tracks+.cue
Битрейт аудио: lossless
Продолжительность: 00:55:08
Признательность за рип: dtromp
Трэклист:

1. Invisible worlds (4:52)
2. Velvet lotus (4:16)
3. Ijazzat (4:42)
4. Crystal vision (6:30)
5. Fly 336 (4:54)
6. Infinite spiral (6:16)
7. Arunachala (6:53)
8. N'toto mountains (4:20)
9. Blue tala (3:43)
10. One for Turiya (8:42)
 
EAC
Exact Audio Copy V0.99 prebeta 4 from 23. January 2008
EAC extraction logfile from 10. February 2009, 17:08
Mukta / Invisible Worlds
Used drive : _NEC DVD_RW ND-3500AG Adapter: 0 ID: 1
Read mode : Secure
Utilize accurate stream : Yes
Defeat audio cache : Yes
Make use of C2 pointers : No
Read offset correction : 48
Overread into Lead-In and Lead-Out : No
Fill up missing offset samples with silence : Yes
Delete leading and trailing silent blocks : No
Null samples used in CRC calculations : Yes
Used interface : Native Win32 interface for Win NT & 2000
Gap handling : Appended to previous track
Used output format : User Defined Encoder
Selected bitrate : 128 kBit/s
Quality : High
Add ID3 tag : No
Command line compressor : C:\Program Files\FLAC\flac.exe
Additional command line options : -8 -V -T "ARTIST=%a" -T "TITLE=%t" -T "ALBUM=%g" -T "DATE=%y" -T "TRACKNUMBER=%n" -T "GENRE=%m" -T "COMMENT=EAC FLAC -8" %s
TOC of the extracted CD
Track | Start | Length | Start sector | End sector
---------------------------------------------------------
1 | 0:00.00 | 4:52.03 | 0 | 21902
2 | 4:52.03 | 4:16.27 | 21903 | 41129
3 | 9:08.30 | 4:42.69 | 41130 | 62348
4 | 13:51.24 | 6:30.46 | 62349 | 91644
5 | 20:21.70 | 4:54.16 | 91645 | 113710
6 | 25:16.11 | 6:16.15 | 113711 | 141925
7 | 31:32.26 | 6:53.00 | 141926 | 172900
8 | 38:25.26 | 4:20.60 | 172901 | 192460
9 | 42:46.11 | 3:43.23 | 192461 | 209208
10 | 46:29.34 | 8:42.69 | 209209 | 248427
Track 1
Filename P:\DL temp\Mukta - Invisible Worlds (2008) [FLAC]\01 - Invisible worlds.wav
Pre-gap length 0:00:02.00
Peak level 100.0 %
Track quality 100.0 %
Test CRC E791156F
Copy CRC E791156F
Track not present in AccurateRip database
Copy OK
Track 2
Filename P:\DL temp\Mukta - Invisible Worlds (2008) [FLAC]\02 - Velvet lotus.wav
Peak level 100.0 %
Track quality 99.9 %
Test CRC 7F8751A6
Copy CRC 7F8751A6
Track not present in AccurateRip database
Copy OK
Track 3
Filename P:\DL temp\Mukta - Invisible Worlds (2008) [FLAC]\03 - Ijazzat.wav
Peak level 100.0 %
Track quality 99.9 %
Test CRC 532E8847
Copy CRC 532E8847
Track not present in AccurateRip database
Copy OK
Track 4
Filename P:\DL temp\Mukta - Invisible Worlds (2008) [FLAC]\04 - Crystal vision.wav
Peak level 100.0 %
Track quality 100.0 %
Test CRC 2A40BE92
Copy CRC 2A40BE92
Track not present in AccurateRip database
Copy OK
Track 5
Filename P:\DL temp\Mukta - Invisible Worlds (2008) [FLAC]\05 - Fly 336.wav
Peak level 100.0 %
Track quality 99.9 %
Test CRC 27C231F3
Copy CRC 27C231F3
Track not present in AccurateRip database
Copy OK
Track 6
Filename P:\DL temp\Mukta - Invisible Worlds (2008) [FLAC]\06 - Infinite spiral.wav
Peak level 100.0 %
Track quality 100.0 %
Test CRC 8543E633
Copy CRC 8543E633
Track not present in AccurateRip database
Copy OK
Track 7
Filename P:\DL temp\Mukta - Invisible Worlds (2008) [FLAC]\07 - Arunachala.wav
Peak level 100.0 %
Track quality 100.0 %
Test CRC 9E9360BA
Copy CRC 9E9360BA
Track not present in AccurateRip database
Copy OK
Track 8
Filename P:\DL temp\Mukta - Invisible Worlds (2008) [FLAC]\08 - N'toto mountains.wav
Peak level 100.0 %
Track quality 100.0 %
Test CRC EB6861B7
Copy CRC EB6861B7
Track not present in AccurateRip database
Copy OK
Track 9
Filename P:\DL temp\Mukta - Invisible Worlds (2008) [FLAC]\09 - Blue tala.wav
Peak level 100.0 %
Track quality 100.0 %
Test CRC D5D8468D
Copy CRC D5D8468D
Track not present in AccurateRip database
Copy OK
Track 10
Filename P:\DL temp\Mukta - Invisible Worlds (2008) [FLAC]\10 - One for Turiya.wav
Peak level 100.0 %
Track quality 100.0 %
Test CRC 88989FF4
Copy CRC 88989FF4
Track not present in AccurateRip database
Copy OK
None of the tracks are present in the AccurateRip database
No errors occurred
End of status report
 
.CUE
REM GENRE Jazz
REM DATE 2008
REM DISCID 8A0CF00A
REM COMMENT "ExactAudioCopy v0.99pb4"
PERFORMER "Mukta"
TITLE "Invisible Worlds"
FILE "01 - Invisible worlds.wav" WAVE
TRACK 01 AUDIO
TITLE "Invisible worlds"
PERFORMER "Mukta"
INDEX 01 00:00:00
FILE "02 - Velvet lotus.wav" WAVE
TRACK 02 AUDIO
TITLE "Velvet lotus"
PERFORMER "Mukta"
INDEX 01 00:00:00
FILE "03 - Ijazzat.wav" WAVE
TRACK 03 AUDIO
TITLE "Ijazzat"
PERFORMER "Mukta"
INDEX 01 00:00:00
FILE "04 - Crystal vision.wav" WAVE
TRACK 04 AUDIO
TITLE "Crystal vision"
PERFORMER "Mukta"
INDEX 01 00:00:00
FILE "05 - Fly 336.wav" WAVE
TRACK 05 AUDIO
TITLE "Fly 336"
PERFORMER "Mukta"
INDEX 01 00:00:00
FILE "06 - Infinite spiral.wav" WAVE
TRACK 06 AUDIO
TITLE "Infinite spiral"
PERFORMER "Mukta"
INDEX 01 00:00:00
FILE "07 - Arunachala.wav" WAVE
TRACK 07 AUDIO
TITLE "Arunachala"
PERFORMER "Mukta"
INDEX 01 00:00:00
FILE "08 - N'toto mountains.wav" WAVE
TRACK 08 AUDIO
TITLE "N'toto mountains"
PERFORMER "Mukta"
INDEX 01 00:00:00
FILE "09 - Blue tala.wav" WAVE
TRACK 09 AUDIO
TITLE "Blue tala"
PERFORMER "Mukta"
INDEX 01 00:00:00
FILE "10 - One for Turiya.wav" WAVE
TRACK 10 AUDIO
TITLE "One for Turiya"
PERFORMER "Mukta"
INDEX 01 00:00:00

Внимание! Торрент-файл перезалит без изменения содержимого в связи с просьбой администрации снять флаг «Приватная раздача»
Скачавшим ранее просьба перекачать торрент-файл, перехешировать и присоединиться к раздаче.
По всем вопросам пишите личное сообщение пользователю M0p94ok.
04:45
196
Нет комментариев. Ваш будет первым!