Поиск

(modern creative, Tzadik Film Music) Trevor Dunn - Four Films (feat. Kenny Wollesen, Rob Burger, Chris Speed) - 2008, FLAC (image+.cue), lossless

(modern creative, Tzadik Film Music) Trevor Dunn - Four Films (feat. Kenny Wollesen, Rob Burger, Chris Speed) - 2008, FLAC (image+.cue), lossless
Треклист:
Trevor Dunn - Four Films (feat. Kenny Wollesen, Rob Burger, Chris Speed)
Жанр: modern creative, Tzadik Film Music
Год выпуска диска: 2008
Производитель диска: USA (Tzadik)
Аудио кодек: FLAC
Тип рипа: image+.cue
Битрейт аудио: lossless
Продолжительность: 56.57
Трэклист:
1. Perfect Crime
2. Lies
3. Paris Whore
4. End
5. Second Nightmare
6. The Boardwalk
7. Lizards & Robots
8. Opening
9. Shit-talker
10. Lying In Bed, Talking About Nothing
11. Fire Disco
12. Fog Burn Neuroses
13. Third Nightmare
14. Isabelle
15. Contemplator
16. Late Night Science
17. Drive
18. Glendale Blvd
19. End Credits
20. Accident
21. Squamata Robota
22. First Nightmare
23. Haunted By Video Games
24. Fog Burn
25. Ending
26. Taking Mom Out
Доп. информация: Trevor Dunn: all instruments
Rob Burger: Rhodes
Marika Hughes: Cello
Tim Keiper: percussion , drums
Chris Speed: clarinet
Kenny Wollesen: Drums
Shelley Burgon: harp , voice
Olivier Conan: voice
 
eac log
Exact Audio Copy V0.99 prebeta 4 from 23. January 2008
Отчёт EAC об извлечении, выполненном 24. октября 2008, 9:42
Trevor Dunn / FOUR FILMS
Дисковод: Optiarc DVD RW AD-7170A Adapter: 0 ID: 1
Режим чтения : Достоверность
Использование точного потока : Да
Отключение кэша аудио : Да
Использование указателей C2 : Нет
Коррекция смещения при чтении : 48
Способность читать области Lead-in и Lead-out : Нет
Заполнение пропущенных сэмплов тишиной : Да
Удаление блоков с тишиной в начале и конце : Нет
При вычислениях CRC использовались нулевые сэмплы : Да
Интерфейс : Встроенный Win32-интерфейс для Win NT/2000
Выходной формат : Пользовательский кодировщик
Выбранный битрейт : 768 kBit/s
Качество : Высокий
Добавление ID3-тэга : Нет
Утилита сжатия : D:\Program Files\Exact Audio Copy\FLAC\FLAC.EXE
Дополнительные параметры : -6 -V -T "ARTIST=%a" -T "TITLE=%t" -T "ALBUM=%g" -T "DATE=%y" -T "TRACKNUMBER=%n" -T "GENRE=%m" -T "COMMENT=%e" %s -o %d
TOC извлечённого CD
Трек | Старт | Длительность | Начальный сектор | Конечный сектор
---------------------------------------------------------------------
1 | 0:00.00 | 3:02.51 | 0 | 13700
2 | 3:02.51 | 2:00.40 | 13701 | 22740
3 | 5:03.16 | 3:21.17 | 22741 | 37832
4 | 8:24.33 | 2:41.14 | 37833 | 49921
5 | 11:05.47 | 1:58.28 | 49922 | 58799
6 | 13:04.00 | 1:35.73 | 58800 | 65997
7 | 14:39.73 | 0:46.52 | 65998 | 69499
8 | 15:26.50 | 2:20.37 | 69500 | 80036
9 | 17:47.12 | 1:17.28 | 80037 | 85839
10 | 19:04.40 | 2:49.19 | 85840 | 98533
11 | 21:53.59 | 5:12.29 | 98534 | 121962
12 | 27:06.13 | 1:20.63 | 121963 | 128025
13 | 28:27.01 | 0:54.00 | 128026 | 132075
14 | 29:21.01 | 4:02.72 | 132076 | 150297
15 | 33:23.73 | 3:26.16 | 150298 | 165763
16 | 36:50.14 | 1:11.51 | 165764 | 171139
17 | 38:01.65 | 2:22.48 | 171140 | 181837
18 | 40:24.38 | 2:29.59 | 181838 | 193071
19 | 42:54.22 | 1:23.31 | 193072 | 199327
20 | 44:17.53 | 2:25.55 | 199328 | 210257
21 | 46:43.33 | 1:32.66 | 210258 | 217223
22 | 48:16.24 | 0:53.29 | 217224 | 221227
23 | 49:09.53 | 0:44.60 | 221228 | 224587
24 | 49:54.38 | 1:22.11 | 224588 | 230748
25 | 51:16.49 | 2:01.64 | 230749 | 239887
26 | 53:18.38 | 3:38.72 | 239888 | 256309
Характеристики диапазона извлечения и сообщения об ошибках
Выбранный диапазон
Имя файла D:\EAC\Trevor Dunn - FOUR FILMS.wav
Пиковый уровень 97.7 %
Качество диапазона 99.9 %
CRC копии E78F9AC1
Копирование... OK
Ошибок не произошло
AccurateRip: сводка
Трек 1 нет в базе данных
Трек 2 нет в базе данных
Трек 3 нет в базе данных
Трек 4 нет в базе данных
Трек 5 нет в базе данных
Трек 6 нет в базе данных
Трек 7 нет в базе данных
Трек 8 нет в базе данных
Трек 9 нет в базе данных
Трек 10 нет в базе данных
Трек 11 нет в базе данных
Трек 12 нет в базе данных
Трек 13 нет в базе данных
Трек 14 нет в базе данных
Трек 15 нет в базе данных
Трек 16 нет в базе данных
Трек 17 нет в базе данных
Трек 18 нет в базе данных
Трек 19 нет в базе данных
Трек 20 нет в базе данных
Трек 21 нет в базе данных
Трек 22 нет в базе данных
Трек 23 нет в базе данных
Трек 24 нет в базе данных
Трек 25 нет в базе данных
Трек 26 нет в базе данных
Ни одного трека нет в базе AccurateRip
Конец отчёта
Приватный:
Нет (DHT включён)
Размер:
282.52 Мб (296,247,834 байт) » файлов: 3
Участники:
0 раздают, 0 качают (0 участников всего)
Внешние участники:
2 раздают, 1 качают (3 участников всего) [ Обновить ]
No seeders - write a personal message to user M0p94ok. Нет сидеров - пишите личное сообщение пользователю M0p94ok.
04:20
59
Нет комментариев. Ваш будет первым!