Поиск

(Avant-garde) Air - Air Live - 1976, APE (image+.cue) (Black Saint), lossless

Треклист:
Air - Air Live
Жанр: Avant-garde
Год выпуска диска: 1976
Производитель диска: US
Аудио кодек: APE
Тип рипа: image+.cue
Битрейт аудио: lossless
Продолжительность: 42:27
Трэклист:
01 - Eulogy For Charles Clarke (13:06)
02 - Portrait Of Leo Smith (7:58)
03 - Keep Right On Playing Thru The Mirror Over The Water (15:37)
04 - Be Ever Out (5:46)
Доп. информация: Henry Threadgill ts
Fred Hopkins b
Steve McCall dr
 
Отчёт EAC
Exact Audio Copy V0.99 prebeta 4 from 23. January 2008
EAC extraction logfile from 27. March 2008, 8:31
Air / Live
Used drive : LG CD-ROM CRD-8480C Adapter: 1 ID: 0
Read mode : Secure
Utilize accurate stream : Yes
Defeat audio cache : Yes
Make use of C2 pointers : No
Read offset correction : -24
Overread into Lead-In and Lead-Out : No
Fill up missing offset samples with silence : Yes
Delete leading and trailing silent blocks : No
Null samples used in CRC calculations : No
Used interface : Native Win32 interface for Win NT & 2000
Used output format : Internal WAV Routines
Sample format : 44.100 Hz; 16 Bit; Stereo
TOC of the extracted CD
Track | Start | Length | Start sector | End sector
---------------------------------------------------------
1 | 0:00.33 | 13:05.62 | 33 | 58969
2 | 13:06.20 | 7:58.13 | 58970 | 94832
3 | 21:04.33 | 15:36.70 | 94833 | 165102
4 | 36:41.28 | 5:46.27 | 165103 | 191079
Range status and errors
Selected range
Filename D:\_\Air - Live.wav
Peak level 99.7 %
Range quality 99.9 %
Copy CRC 97DA5963
Copy OK
No errors occurred
End of status report
Стянуто в свое врямя с nnm. Правда обложек не досталось. Огромная благодарность barin99
Еще Air
Open Air Suite
Air Raid
Air Lore
Air Mail
Live In Salzburg 1982
Приватный:
Нет (DHT включён)
Размер:
180.73 Мб (189,512,211 байт) » файлов: 5
Участники:
0 раздают, 0 качают (0 участников всего)
Внешние участники:
2 раздают, 1 качают (3 участников всего) [ Обновить ]
No seeders - write a personal message to user M0p94ok. Нет сидеров - пишите личное сообщение пользователю M0p94ok.
04:19
61
Нет комментариев. Ваш будет первым!