Поиск

(Avant-Garde / Modern Creative) Big Satan (Berne / Ducret / Rainey) - I Think They Liked It, Honey - 1997, FLAC (image+.cue), lossless

(Avant-Garde / Modern Creative) Big Satan (Berne / Ducret / Rainey) - I Think They Liked It, Honey - 1997, FLAC (image+.cue), lossless
Треклист:
Big Satan (Berne / Ducret / Rainey) - I Think They Liked It, Honey
Жанр: Avant-Garde / Modern Creative
Год выпуска диска: 1997
Производитель диска: Germany (Winter & Winter)
Аудио кодек: FLAC
Тип рипа: image+.cue
Битрейт аудио: lossless
Продолжительность: 1:17:29
Tim Berne baritone and alto saxophones
Marc Ducret electric guitars
Tom Rainey drums
Bobby Raconte une Histoire
Dialectes
The 12 1/2 % Solution
Scrap Metal
Yes, Dear
Description du Tunnel
 
EAC Report
Exact Audio Copy V0.99 prebeta 4 from 23. January 2008
EAC extraction logfile from 21. September 2008, 20:14
Big Satan (Berne / Ducret / Rainey) / I Think They Liked It, Honey
Used drive : TSSTcorpCD/DVDW SH-S182M Adapter: 2 ID: 0
Read mode : Secure
Utilize accurate stream : Yes
Defeat audio cache : Yes
Make use of C2 pointers : No
Read offset correction : 6
Overread into Lead-In and Lead-Out : No
Fill up missing offset samples with silence : Yes
Delete leading and trailing silent blocks : No
Null samples used in CRC calculations : No
Used interface : Installed external ASPI interface
Used output format : User Defined Encoder
Selected bitrate : 1024 kBit/s
Quality : High
Add ID3 tag : No
Command line compressor : C:\Program Files\Exact Audio Copy\FLAC\FLAC.EXE
Additional command line options : -6 -V -T "ARTIST=%a" -T "TITLE=%t" -T "ALBUM=%g" -T "DATE=%y" -T "TRACKNUMBER=%n" -T "GENRE=%m" -T "COMMENT=%e" %s -o %d
TOC of the extracted CD
Track | Start | Length | Start sector | End sector
---------------------------------------------------------
1 | 0:00.00 | 11:42.15 | 0 | 52664
2 | 11:42.15 | 15:29.52 | 52665 | 122391
3 | 27:11.67 | 10:54.03 | 122392 | 171444
4 | 38:05.70 | 8:50.05 | 171445 | 211199
5 | 46:56.00 | 14:13.65 | 211200 | 275239
6 | 61:09.65 | 16:19.35 | 275240 | 348699
Range status and errors
Selected range
Filename C:\z\Big Satan (Berne Ducret Rainey) - I Think They Liked It, Honey.wav
Peak level 99.9 %
Range quality 100.0 %
Copy CRC 9E09C9C6
Copy OK
No errors occurred
AccurateRip summary
Track 1 not present in database
Track 2 not present in database
Track 3 not present in database
Track 4 not present in database
Track 5 not present in database
Track 6 not present in database
None of the tracks are present in the AccurateRip database
End of status report
Приватный:
Нет (DHT включён)
Размер:
426.05 Мб (446,747,283 байт) » файлов: 5
Участники:
0 раздают, 0 качают (0 участников всего)
Внешние участники:
2 раздают, 1 качают (3 участников всего) [ Обновить ]
No seeders - write a personal message to user M0p94ok. Нет сидеров - пишите личное сообщение пользователю M0p94ok.
04:19
76
Нет комментариев. Ваш будет первым!