Поиск

(Jazz Avant-Garde) William Parker Quartet - Petit Oiseau - 2008, APE (image+.cue)

(Jazz Avant-Garde) William Parker Quartet - Petit Oiseau - 2008, APE (image+.cue)
Треклист:
William Parker Quartet - Petit Oiseau
Жанр: Jazz Avant-Garde
Год выпуска диска: 2008
Производитель диска: AUM Fidelity
Аудио кодек: APE
Тип рипа: image+.cue
Продолжительность: 70:25
Трэклист:
1 Groove Sweet
2 Talaps Theme
3 Petit Oiseau
4 The Golden Bell Parker
5 Four for Tommy Parker
6 Malachi's Mode Parker
7 Dust from a Mountain Parker
8 Shorter for Alan Parker
Доп. информация:
 
Отчёт EAC
Exact Audio Copy V0.99 prebeta 4 from 23. January 2008
EAC extraction logfile from 24. October 2008, 6:22
William Parker Quartet / Petit Oiseau
Used drive : _NEC CD-RW NR-9500B Adapter: 3 ID: 0
Read mode : Secure
Utilize accurate stream : Yes
Defeat audio cache : Yes
Make use of C2 pointers : No
Read offset correction : 145
Overread into Lead-In and Lead-Out : No
Fill up missing offset samples with silence : Yes
Delete leading and trailing silent blocks : No
Null samples used in CRC calculations : No
Used interface : Native Win32 interface for Win NT & 2000
Used output format : Internal WAV Routines
Sample format : 44.100 Hz; 16 Bit; Stereo
TOC of the extracted CD
Track | Start | Length | Start sector | End sector
---------------------------------------------------------
1 | 0:00.00 | 18:00.36 | 0 | 81035
2 | 18:00.36 | 5:33.16 | 81036 | 106026
3 | 23:33.52 | 9:34.12 | 106027 | 149088
4 | 33:07.64 | 6:26.18 | 149089 | 178056
5 | 39:34.07 | 4:07.14 | 178057 | 196595
6 | 43:41.21 | 8:07.22 | 196596 | 233142
7 | 51:48.43 | 5:56.24 | 233143 | 259866
8 | 57:44.67 | 12:38.08 | 259867 | 316724
Range status and errors
Selected range
Filename C:\Temp\William Parker Quartet - Petit Oiseau.wav
Peak level 97.7 %
Range quality 100.0 %
Copy CRC D86879FB
Copy OK
No errors occurred
AccurateRip summary
Track 1 not present in database
Track 2 not present in database
Track 3 not present in database
Track 4 not present in database
Track 5 not present in database
Track 6 not present in database
Track 7 not present in database
Track 8 not present in database
None of the tracks are present in the AccurateRip database
End of status report
Хотел я было закрыть вяло текущюю тему Паркера(уже подготовил новый проэкт WSQ),
но вот зашёл сегодня в магазин и прикупил пачечку дисков.
Среди них несколько Паркеров в том числе и последний.
Так что не удержался-ловите(я еще не слушал).
Кто заценит первый,получит бонус.
Приватный:
Нет (DHT включён)
Размер:
411.67 Мб (431,667,053 байт) » файлов: 7
Участники:
0 раздают, 0 качают (0 участников всего)
Внешние участники:
2 раздают, 1 качают (3 участников всего) [ Обновить ]
No seeders - write a personal message to user M0p94ok. Нет сидеров - пишите личное сообщение пользователю M0p94ok.
04:21
76
Нет комментариев. Ваш будет первым!