Поиск

(Jazz) Marion Brown - Vista - 1975, FLAC (tracks+.cue), lossless

(Jazz) Marion Brown - Vista - 1975, FLAC (tracks+.cue), lossless
Треклист:
Marion Brown - Vista
Жанр: Jazz
Год выпуска : 1975
Страна: USA
Аудио кодек: FLAC
Тип рипа: tracks+.cue
Битрейт аудио: lossless
Продолжительность: 00:41:13
Признательность за рип: vdown

1. Maimoun (7:32)
2. Visions (5:39)
3. Vista (7:44)
4. Moment Of Truth (4:36)
5. Bismillahi 'Rrahmani' Rrahim (5:59)
6. Djinji (9:43)
 
ЕАС
Exact Audio Copy V0.99 prebeta 4 from 23. January 2008
EAC extraction logfile from 20. October 2008, 18:31
Marion Brown / Vista
Used drive : PIONEER DVD-RW DVR-215D Adapter: 4 ID: 0
Read mode : Secure
Utilize accurate stream : Yes
Defeat audio cache : Yes
Make use of C2 pointers : No
Read offset correction : 48
Overread into Lead-In and Lead-Out : No
Fill up missing offset samples with silence : Yes
Delete leading and trailing silent blocks : No
Null samples used in CRC calculations : Yes
Used interface : Native Win32 interface for Win NT & 2000
Gap handling : Appended to previous track
Used output format : User Defined Encoder
Selected bitrate : 768 kBit/s
Quality : High
Add ID3 tag : No
Command line compressor : C:\Program Files\Exact Audio Copy\FLAC\FLAC.EXE
Additional command line options : -8 -V -T "ARTIST=%a" -T "TITLE=%t" -T "ALBUM=%g" -T "DATE=%y" -T "TRACKNUMBER=%n" -T "GENRE=%m" -T "COMMENT=EAC FLAC -8" %s
TOC of the extracted CD
Track | Start | Length | Start sector | End sector
---------------------------------------------------------
1 | 0:00.37 | 7:32.30 | 37 | 33966
2 | 7:32.67 | 5:39.43 | 33967 | 59434
3 | 13:12.35 | 7:44.35 | 59435 | 94269
4 | 20:56.70 | 4:36.17 | 94270 | 114986
5 | 25:33.12 | 5:59.70 | 114987 | 141981
6 | 31:33.07 | 9:43.43 | 141982 | 185749
Track 1
Filename G:\MP3\Marion_Brown-Vista\01 - Maimoun.wav
Pre-gap length 0:00:02.49
Peak level 93.9 %
Track quality 100.0 %
Test CRC 26ABB987
Copy CRC 26ABB987
Track not present in AccurateRip database
Copy OK
Track 2
Filename G:\MP3\Marion_Brown-Vista\02 - Visions.wav
Peak level 88.6 %
Track quality 100.0 %
Test CRC A1655E00
Copy CRC A1655E00
Track not present in AccurateRip database
Copy OK
Track 3
Filename G:\MP3\Marion_Brown-Vista\03 - Vista.wav
Peak level 92.7 %
Track quality 100.0 %
Test CRC ED2CB6FC
Copy CRC ED2CB6FC
Track not present in AccurateRip database
Copy OK
Track 4
Filename G:\MP3\Marion_Brown-Vista\04 - Moment Of Truth.wav
Pre-gap length 0:00:00.06
Peak level 93.9 %
Track quality 100.0 %
Test CRC 0A660CC0
Copy CRC 0A660CC0
Track not present in AccurateRip database
Copy OK
Track 5
Filename G:\MP3\Marion_Brown-Vista\05 - Bismillahi 'Rrahmani' Rrahim.wav
Pre-gap length 0:00:00.70
Peak level 71.9 %
Track quality 99.9 %
Test CRC 9C050AD2
Copy CRC 9C050AD2
Track not present in AccurateRip database
Copy OK
Track 6
Filename G:\MP3\Marion_Brown-Vista\06 - Djinji.wav
Pre-gap length 0:00:00.28
Peak level 94.0 %
Track quality 100.0 %
Test CRC 367E486A
Copy CRC 367E486A
Track not present in AccurateRip database
Copy OK
None of the tracks are present in the AccurateRip database
No errors occurred
End of status report
Marion Brown (as, wind chimes)
Stanley Cowell (p, Fender rhodes electric p, mbira)
Anthony Davis (p, Fender rhodes electric p)
Reggie Workman (b)
Jimmy Hopps (dr, cymbals)
Jose Goico (tamborine, congas, finger cymbals)
Allen Murphy (voc, bells)
Bill Braynon (p, celestes, RMI electric piano)
Ed Blackwell (dr, slit drum)
Harold Budd (celeste, gong)
Приватный:
Нет (DHT включён)
Размер:
217.82 Мб (228,403,095 байт) » файлов: 15
Участники:
0 раздают, 0 качают (0 участников всего)
Внешние участники:
2 раздают, 1 качают (3 участников всего) [ Обновить ]
No seeders - write a personal message to user M0p94ok. Нет сидеров - пишите личное сообщение пользователю M0p94ok.
04:21
128
Нет комментариев. Ваш будет первым!