Поиск

(Jazz) Marion Brown - Geechee Recollections - 1973, FLAC (tracks+.cue), lossless

(Jazz) Marion Brown - Geechee Recollections - 1973, FLAC (tracks+.cue), lossless
Треклист:
Marion Brown - Geechee Recollections
Жанр: Jazz
Год выпуска : 1973
Страна: USA
Аудио кодек: FLAC
Тип рипа: tracks+.cue
Битрейт аудио: lossless
Продолжительность: 00:40:35
Признательность за рип: vdown

1. Once Upon A Time (A Children's Tale) (6:27)
2. Karintha (9:25)
3. Buttermilk Bottom (4:42)
4. Introduction (Solo Improvisation By Marion Brown) (1:18)
5. Tokalokaloka, Part One (6:59)
6. Tokalokaloka, Part Two (8:39)
7. Tokalokaloka, Part Three (1:45)
8. Ending (Solo Improvisation By Leo Smith) (1:20)
 
ЕАС
Exact Audio Copy V0.99 prebeta 4 from 23. January 2008
EAC extraction logfile from 20. October 2008, 19:06
Marion Brown / Geechee Recollections
Used drive : PIONEER DVD-RW DVR-215D Adapter: 4 ID: 0
Read mode : Secure
Utilize accurate stream : Yes
Defeat audio cache : Yes
Make use of C2 pointers : No
Read offset correction : 48
Overread into Lead-In and Lead-Out : No
Fill up missing offset samples with silence : Yes
Delete leading and trailing silent blocks : No
Null samples used in CRC calculations : Yes
Used interface : Native Win32 interface for Win NT & 2000
Gap handling : Appended to previous track
Used output format : User Defined Encoder
Selected bitrate : 768 kBit/s
Quality : High
Add ID3 tag : No
Command line compressor : C:\Program Files\Exact Audio Copy\FLAC\FLAC.EXE
Additional command line options : -8 -V -T "ARTIST=%a" -T "TITLE=%t" -T "ALBUM=%g" -T "DATE=%y" -T "TRACKNUMBER=%n" -T "GENRE=%m" -T "COMMENT=EAC FLAC -8" %s
TOC of the extracted CD
Track | Start | Length | Start sector | End sector
---------------------------------------------------------
1 | 0:00.37 | 6:27.50 | 37 | 29111
2 | 6:28.12 | 9:25.23 | 29112 | 71509
3 | 15:53.35 | 4:42.55 | 71510 | 92714
4 | 20:36.15 | 1:18.25 | 92715 | 98589
5 | 21:54.40 | 6:59.55 | 98590 | 130069
6 | 28:54.20 | 8:39.32 | 130070 | 169026
7 | 37:33.52 | 1:45.43 | 169027 | 176944
8 | 39:19.20 | 1:20.52 | 176945 | 182996
Track 1
Filename G:\MP3\Marion_Brown-Geechee_Recollections\01 - Once Upon A Time (A Children's Tale).wav
Pre-gap length 0:00:02.49
Peak level 94.0 %
Track quality 100.0 %
Test CRC 71D07206
Copy CRC 71D07206
Track not present in AccurateRip database
Copy OK
Track 2
Filename G:\MP3\Marion_Brown-Geechee_Recollections\02 - Karintha.wav
Pre-gap length 0:00:00.05
Peak level 93.9 %
Track quality 100.0 %
Test CRC AF02B1F2
Copy CRC AF02B1F2
Track not present in AccurateRip database
Copy OK
Track 3
Filename G:\MP3\Marion_Brown-Geechee_Recollections\03 - Buttermilk Bottom.wav
Pre-gap length 0:00:00.02
Peak level 93.9 %
Track quality 100.0 %
Test CRC 7E3646FB
Copy CRC 7E3646FB
Track not present in AccurateRip database
Copy OK
Track 4
Filename G:\MP3\Marion_Brown-Geechee_Recollections\04 - Introduction (Solo Improvisation By Marion Brown).wav
Pre-gap length 0:00:00.04
Peak level 87.5 %
Track quality 99.8 %
Test CRC 11C3DE3D
Copy CRC 11C3DE3D
Track not present in AccurateRip database
Copy OK
Track 5
Filename G:\MP3\Marion_Brown-Geechee_Recollections\05 - Tokalokaloka, Part One.wav
Peak level 87.0 %
Track quality 99.9 %
Test CRC 97D9CA49
Copy CRC 97D9CA49
Track not present in AccurateRip database
Copy OK
Track 6
Filename G:\MP3\Marion_Brown-Geechee_Recollections\06 - Tokalokaloka, Part Two.wav
Peak level 94.0 %
Track quality 100.0 %
Test CRC D1FF3954
Copy CRC D1FF3954
Track not present in AccurateRip database
Copy OK
Track 7
Filename G:\MP3\Marion_Brown-Geechee_Recollections\07 - Tokalokaloka, Part Three.wav
Peak level 47.2 %
Track quality 99.8 %
Test CRC F8236E22
Copy CRC F8236E22
Track not present in AccurateRip database
Copy OK
Track 8
Filename G:\MP3\Marion_Brown-Geechee_Recollections\08 - Ending (Solo Improvisation By Leo Smith).wav
Peak level 65.4 %
Track quality 99.8 %
Test CRC 69DAEC71
Copy CRC 69DAEC71
Track not present in AccurateRip database
Copy OK
None of the tracks are present in the AccurateRip database
No errors occurred
End of status report
Marion Brown (as, ss, cl, perc)
Leo Smith (tp, perc)
Bill Hasson (narration)
James Jefferson (b, cello)
Steve McCall (d)
A. Kobena Adzenyah (d)
William Malone (thumb piano, autoharp)
Jumma Santos (conga, misc perc)
Приватный:
Нет (DHT включён)
Размер:
236.84 Мб (248,341,379 байт) » файлов: 16
Участники:
0 раздают, 0 качают (0 участников всего)
Внешние участники:
2 раздают, 1 качают (3 участников всего) [ Обновить ]
No seeders - write a personal message to user M0p94ok. Нет сидеров - пишите личное сообщение пользователю M0p94ok.
04:22
108
Нет комментариев. Ваш будет первым!