Поиск

(Avant-Garde / Modern Creative) Tim Berne / Hank Roberts - Cause & Reflect - 1998, FLAC (image+.cue), lossless

(Avant-Garde / Modern Creative) Tim Berne / Hank Roberts - Cause & Reflect - 1998, FLAC (image+.cue), lossless
Треклист:
Tim Berne / Hank Roberts - Cause & Reflect
Жанр: Avant-Garde / Modern Creative
Год выпуска диска: 1998
Производитель диска: USA (Level Green)
Аудио кодек: FLAC
Тип рипа: image+.cue
Битрейт аудио: lossless
Продолжительность: 49:31
Tim Berne alto and baritone saxophones
Hank Roberts cello
Wobbly
Temporary Sanity
More Than Once Dance
Invasion Of The Freudian Shrimp
Real Waiting Mire Calliope
Cool Sweat
In Other Words
Showdown
In Other Worlds
Recorded directly to DAT on July 9 & 10 1998 at Barnes Hall, Cornell University

 
EAC Report
Exact Audio Copy V0.99 prebeta 4 from 23. January 2008
EAC extraction logfile from 22. October 2008, 21:53
Tim Berne / Hank Roberts / Cause & Reflect
Used drive : TSSTcorpCD/DVDW SH-S182M Adapter: 2 ID: 0
Read mode : Secure
Utilize accurate stream : Yes
Defeat audio cache : Yes
Make use of C2 pointers : No
Read offset correction : 6
Overread into Lead-In and Lead-Out : No
Fill up missing offset samples with silence : Yes
Delete leading and trailing silent blocks : No
Null samples used in CRC calculations : Yes
Used interface : Installed external ASPI interface
Used output format : User Defined Encoder
Selected bitrate : 1024 kBit/s
Quality : High
Add ID3 tag : No
Command line compressor : C:\Program Files\Exact Audio Copy\FLAC\FLAC.EXE
Additional command line options : -6 -V -T "ARTIST=%a" -T "TITLE=%t" -T "ALBUM=%g" -T "DATE=%y" -T "TRACKNUMBER=%n" -T "GENRE=%m" -T "COMMENT=%e" %s -o %d
TOC of the extracted CD
Track | Start | Length | Start sector | End sector
---------------------------------------------------------
1 | 0:00.00 | 7:29.65 | 0 | 33739
2 | 7:29.65 | 4:27.32 | 33740 | 53796
3 | 11:57.22 | 4:34.05 | 53797 | 74351
4 | 16:31.27 | 4:41.70 | 74352 | 95496
5 | 21:13.22 | 8:28.05 | 95497 | 133601
6 | 29:41.27 | 4:31.38 | 133602 | 153964
7 | 34:12.65 | 3:48.52 | 153965 | 171116
8 | 38:01.42 | 6:58.13 | 171117 | 202479
9 | 44:59.55 | 4:30.70 | 202480 | 222799
Range status and errors
Selected range
Filename C:\z\Tim Berne & Hank Roberts - Cause & Reflect.wav
Peak level 97.2 %
Range quality 99.9 %
Copy CRC 6CCD62F4
Copy OK
No errors occurred
AccurateRip summary
Track 1 not present in database
Track 2 not present in database
Track 3 not present in database
Track 4 not present in database
Track 5 not present in database
Track 6 not present in database
Track 7 not present in database
Track 8 not present in database
Track 9 not present in database
None of the tracks are present in the AccurateRip database
End of status report
Приватный:
Нет (DHT включён)
Размер:
226.30 Мб (237,289,504 байт) » файлов: 5
Участники:
0 раздают, 0 качают (0 участников всего)
Внешние участники:
2 раздают, 1 качают (3 участников всего) [ Обновить ]
No seeders - write a personal message to user M0p94ok. Нет сидеров - пишите личное сообщение пользователю M0p94ok.
04:23
53
Нет комментариев. Ваш будет первым!