Поиск

(Jazz) Dave Holland Sextet - Pass It On - 2008, FLAC (tracks+.cue), lossless

(Jazz) Dave Holland Sextet - Pass It On - 2008, FLAC (tracks+.cue), lossless
Треклист:
Dave Holland Sextet - Pass It On
Жанр: Jazz
Год выпуска : 2008
Аудио кодек: FLAC
Тип рипа: tracks+.cue
Битрейт аудио: lossless
Продолжительность: 01:14:16
Признательность за рип: tdelyon

1. The Sum Of All Parts (8:11)
2. Fast Track (6:30)
3. Lazy Snake (10:07)
4. Double Vision (8:07)
5. Equality (9:09)
6. Modern Times (5:58)
7. Rivers Run (13:45)
8. Processional (4:33)
9. Pass It On (7:56)
 
ЕАС
Exact Audio Copy V0.99 prebeta 4 from 23. January 2008
EAC extraction logfile from 23. October 2008, 14:03
Dave Holland / Pass It On
Used drive : PHILIPS SPD3400CC Adapter: 2 ID: 3
Read mode : Secure
Utilize accurate stream : Yes
Defeat audio cache : Yes
Make use of C2 pointers : No
Read offset correction : 6
Overread into Lead-In and Lead-Out : No
Fill up missing offset samples with silence : Yes
Delete leading and trailing silent blocks : No
Null samples used in CRC calculations : Yes
Used interface : Installed external ASPI interface
Gap handling : Appended to previous track
Used output format : User Defined Encoder
Selected bitrate : 768 kBit/s
Quality : High
Add ID3 tag : No
Command line compressor : C:\Program Files\Exact Audio Copy\FLAC\FLAC.EXE
Additional command line options : -6 -V -T "ARTIST=%a" -T "TITLE=%t" -T "ALBUM=%g" -T "DATE=%y" -T "TRACKNUMBER=%n" -T "GENRE=%m" -T "COMMENT=%e" %s -o %d
TOC of the extracted CD
Track | Start | Length | Start sector | End sector
---------------------------------------------------------
1 | 0:00.00 | 8:11.43 | 0 | 36867
2 | 8:11.43 | 6:30.28 | 36868 | 66145
3 | 14:41.71 | 10:07.25 | 66146 | 111695
4 | 24:49.21 | 8:07.37 | 111696 | 148257
5 | 32:56.58 | 9:09.50 | 148258 | 189482
6 | 42:06.33 | 5:58.55 | 189483 | 216387
7 | 48:05.13 | 13:45.54 | 216388 | 278316
8 | 61:50.67 | 4:33.26 | 278317 | 298817
9 | 66:24.18 | 7:56.52 | 298818 | 334569
Track 1
Filename C:\Dave Holland - Pass It On\01 - The Sum Of All Parts.wav
Pre-gap length 0:00:02.00
Peak level 99.8 %
Track quality 100.0 %
Test CRC D9D48500
Copy CRC D9D48500
Track not present in AccurateRip database
Copy OK
Track 2
Filename C:\Dave Holland - Pass It On\02 - Fast Track.wav
Pre-gap length 0:00:00.10
Peak level 99.8 %
Track quality 100.0 %
Test CRC C928D156
Copy CRC C928D156
Track not present in AccurateRip database
Copy OK
Track 3
Filename C:\Dave Holland - Pass It On\03 - Lazy Snake.wav
Peak level 99.8 %
Track quality 99.9 %
Test CRC F1F1B041
Copy CRC F1F1B041
Track not present in AccurateRip database
Copy OK
Track 4
Filename C:\Dave Holland - Pass It On\04 - Double Vision.wav
Peak level 99.8 %
Track quality 99.9 %
Test CRC DC05B18D
Copy CRC DC05B18D
Track not present in AccurateRip database
Copy OK
Track 5
Filename C:\Dave Holland - Pass It On\05 - Equality.wav
Peak level 100.0 %
Track quality 100.0 %
Test CRC 56EBD8B0
Copy CRC 56EBD8B0
Track not present in AccurateRip database
Copy OK
Track 6
Filename C:\Dave Holland - Pass It On\06 - Modern Times.wav
Pre-gap length 0:00:00.01
Peak level 99.8 %
Track quality 100.0 %
Test CRC C5B9E0C0
Copy CRC C5B9E0C0
Track not present in AccurateRip database
Copy OK
Track 7
Filename C:\Dave Holland - Pass It On\07 - Rivers Run.wav
Peak level 99.8 %
Track quality 100.0 %
Test CRC 109BC4EC
Copy CRC 109BC4EC
Track not present in AccurateRip database
Copy OK
Track 8
Filename C:\Dave Holland - Pass It On\08 - Processional.wav
Pre-gap length 0:00:00.01
Peak level 99.8 %
Track quality 100.0 %
Test CRC F6A47D10
Copy CRC F6A47D10
Track not present in AccurateRip database
Copy OK
Track 9
Filename C:\Dave Holland - Pass It On\09 - Pass It On.wav
Peak level 99.8 %
Track quality 100.0 %
Test CRC 4BEF0A1D
Copy CRC 4BEF0A1D
Track not present in AccurateRip database
Copy OK
None of the tracks are present in the AccurateRip database
No errors occurred
End of status report
Personnel:
Dave Holland: bass;
Eric Harland: drums;
Antonio Hart: alto saxophone;
Robin Eubanks: trombone;
Mulgrew Miller: piano;
Alex Sipiagin: trumpet.
Приватный:
Нет (DHT включён)
Размер:
464.75 Мб (487,324,313 байт) » файлов: 19
Участники:
0 раздают, 0 качают (0 участников всего)
Внешние участники:
1 раздают, 0 качают (1 участников всего) [ Обновить ]
No seeders - write a personal message to user M0p94ok. Нет сидеров - пишите личное сообщение пользователю M0p94ok.
04:23
120
Нет комментариев. Ваш будет первым!