Вы используете незарегистрированную версию компонента "Вкладки"!

Поиск

(Modern Creative, Throat singing, Experimental) John Duncan & Elliott Sharp - Tongue - 2004, FLAC (tracks+.cue), lossless

(Modern Creative, Throat singing, Experimental) John Duncan & Elliott Sharp - Tongue - 2004, FLAC (tracks+.cue), lossless
Треклист:
John Duncan & Elliott Sharp / Tongue
Жанр: Modern Creative, Throat singing, Experimental
Страна-производитель диска: Italy
Год издания: 2004
Издатель (лейбл): Allquestions
Номер по каталогу: AQ-06
Аудиокодек: FLAC (*.flac)
Тип рипа: tracks+.cue
Битрейт аудио: lossless
Продолжительность: 67:07
Источник (релизер): sunsetonlow
Наличие сканов в содержимом раздачи: нет
Треклист:
1 Tongue Part 1 14:35
2 Tongue Part 2 5:14
3 Tongue Part 3 10:29
4 Tongue Part 4 5:20
5 Tongue Part 5 12:16
6 Tongue Part 6 6:54
7 Tongue Part 7 12:19
 
Лог создания рипа
X Lossless Decoder version 20110312 (130.0)
XLD extraction logfile from 2011-04-15 10:55:03 -0700
John Duncan & Elliott Sharp / Tongue
Used drive : PIONEER DVD-RW DVR-K05 (revision Q523)
Ripper mode : CDParanoia III 10.2
Disable audio cache : OK for the drive with a cache less than 2750KiB
Make use of C2 pointers : NO
Read offset correction : 48
Max retry count : 100
Gap status : Analyzed, Appended
TOC of the extracted CD
Track | Start | Length | Start sector | End sector
---------------------------------------------------------
1 | 00:00:00 | 14:34:32 | 0 | 65581
2 | 14:34:32 | 05:14:25 | 65582 | 89156
3 | 19:48:57 | 10:29:18 | 89157 | 136349
4 | 30:18:00 | 05:20:28 | 136350 | 160377
5 | 35:38:28 | 12:15:68 | 160378 | 215570
6 | 47:54:21 | 06:53:70 | 215571 | 246615
7 | 54:48:16 | 12:18:70 | 246616 | 302035
AccurateRip Summary
Track 01 : OK (confidence 1)
Track 02 : OK (confidence 1)
Track 03 : OK (confidence 1)
Track 04 : OK (confidence 1)
Track 05 : OK (confidence 1)
Track 06 : OK (confidence 1)
Track 07 : OK (confidence 1)
->All tracks accurately ripped.
All Tracks
Album gain : -2.38 dB
Peak : 0.988068
Statistics
Read error : 0
Skipped (treated as error) : 0
Edge jitter error (maybe fixed) : 0
Atom jitter error (maybe fixed) : 0
Drift error (maybe fixed) : 0
Dropped bytes error (maybe fixed) : 0
Duplicated bytes error (maybe fixed) : 0
Track 01
Filename : /Users/anja/Desktop/{What Uploads}/John Duncan & Elliott Sharp - Tongue (2004) [FLAC]/01 Untitled.flac
Pre-gap length : 00:02:00
Track gain : -3.70 dB
Peak : 0.988068
CRC32 hash (test run) : 3AAC17EF
CRC32 hash : 3AAC17EF
CRC32 hash (skip zero) : E23C65FC
AccurateRip signature : 8B6581F1
->Accurately ripped! (confidence 1)
Statistics
Read error : 0
Skipped (treated as error) : 0
Edge jitter error (maybe fixed) : 0
Atom jitter error (maybe fixed) : 0
Drift error (maybe fixed) : 0
Dropped bytes error (maybe fixed) : 0
Duplicated bytes error (maybe fixed) : 0
Inconsistency in error sectors : 0
Track 02
Filename : /Users/anja/Desktop/{What Uploads}/John Duncan & Elliott Sharp - Tongue (2004) [FLAC]/02 Untitled.flac
Track gain : 8.42 dB
Peak : 0.781586
CRC32 hash (test run) : 277B616D
CRC32 hash : 277B616D
CRC32 hash (skip zero) : B72B9431
AccurateRip signature : D5462B23
->Accurately ripped! (confidence 1)
Statistics
Read error : 0
Skipped (treated as error) : 0
Edge jitter error (maybe fixed) : 0
Atom jitter error (maybe fixed) : 0
Drift error (maybe fixed) : 0
Dropped bytes error (maybe fixed) : 0
Duplicated bytes error (maybe fixed) : 0
Inconsistency in error sectors : 0
Track 03
Filename : /Users/anja/Desktop/{What Uploads}/John Duncan & Elliott Sharp - Tongue (2004) [FLAC]/03 Untitled.flac
Track gain : -4.04 dB
Peak : 0.778137
CRC32 hash (test run) : 59767C8D
CRC32 hash : 59767C8D
CRC32 hash (skip zero) : DAB17067
AccurateRip signature : 68F7FE83
->Accurately ripped! (confidence 1)
Statistics
Read error : 0
Skipped (treated as error) : 0
Edge jitter error (maybe fixed) : 0
Atom jitter error (maybe fixed) : 0
Drift error (maybe fixed) : 0
Dropped bytes error (maybe fixed) : 0
Duplicated bytes error (maybe fixed) : 0
Inconsistency in error sectors : 0
Track 04
Filename : /Users/anja/Desktop/{What Uploads}/John Duncan & Elliott Sharp - Tongue (2004) [FLAC]/04 Untitled.flac
Track gain : 2.17 dB
Peak : 0.728546
CRC32 hash (test run) : F656417B
CRC32 hash : F656417B
CRC32 hash (skip zero) : 9FA492FA
AccurateRip signature : 17019F2A
->Accurately ripped! (confidence 1)
Statistics
Read error : 0
Skipped (treated as error) : 0
Edge jitter error (maybe fixed) : 0
Atom jitter error (maybe fixed) : 0
Drift error (maybe fixed) : 0
Dropped bytes error (maybe fixed) : 0
Duplicated bytes error (maybe fixed) : 0
Inconsistency in error sectors : 0
Track 05
Filename : /Users/anja/Desktop/{What Uploads}/John Duncan & Elliott Sharp - Tongue (2004) [FLAC]/05 Untitled.flac
Track gain : 4.04 dB
Peak : 0.988068
CRC32 hash (test run) : 57E06904
CRC32 hash : 57E06904
CRC32 hash (skip zero) : F04B348A
AccurateRip signature : AD53250F
->Accurately ripped! (confidence 1)
Statistics
Read error : 0
Skipped (treated as error) : 0
Edge jitter error (maybe fixed) : 0
Atom jitter error (maybe fixed) : 0
Drift error (maybe fixed) : 0
Dropped bytes error (maybe fixed) : 0
Duplicated bytes error (maybe fixed) : 0
Inconsistency in error sectors : 0
Track 06
Filename : /Users/anja/Desktop/{What Uploads}/John Duncan & Elliott Sharp - Tongue (2004) [FLAC]/06 Untitled.flac
Track gain : -3.70 dB
Peak : 0.938232
CRC32 hash (test run) : 57ED24D5
CRC32 hash : 57ED24D5
CRC32 hash (skip zero) : BF8950FA
AccurateRip signature : 780E9AA2
->Accurately ripped! (confidence 1)
Statistics
Read error : 0
Skipped (treated as error) : 0
Edge jitter error (maybe fixed) : 0
Atom jitter error (maybe fixed) : 0
Drift error (maybe fixed) : 0
Dropped bytes error (maybe fixed) : 0
Duplicated bytes error (maybe fixed) : 0
Inconsistency in error sectors : 0
Track 07
Filename : /Users/anja/Desktop/{What Uploads}/John Duncan & Elliott Sharp - Tongue (2004) [FLAC]/07 Untitled.flac
Track gain : -0.08 dB
Peak : 0.686310
CRC32 hash (test run) : 4AB2D649
CRC32 hash : 4AB2D649
CRC32 hash (skip zero) : 16AE3BE4
AccurateRip signature : 7E23B9CE
->Accurately ripped! (confidence 1)
Statistics
Read error : 0
Skipped (treated as error) : 0
Edge jitter error (maybe fixed) : 0
Atom jitter error (maybe fixed) : 0
Drift error (maybe fixed) : 0
Dropped bytes error (maybe fixed) : 0
Duplicated bytes error (maybe fixed) : 0
Inconsistency in error sectors : 0
No errors occurred
End of status report
 
Содержание индексной карты (.CUE)
TITLE "Tongue"
PERFORMER "John Duncan & Elliott Sharp"
REM DATE "2004"
REM DISCNUMBER 1
REM TOTALDISCS 1
REM DISCID 590FBB07
REM REPLAYGAIN_ALBUM_GAIN -2.38 dB
REM REPLAYGAIN_ALBUM_PEAK 0.988068
FILE "01 Untitled.flac" WAVE
TRACK 01 AUDIO
TITLE "Untitled"
REM REPLAYGAIN_TRACK_GAIN -3.70 dB
REM REPLAYGAIN_TRACK_PEAK 0.988068
INDEX 01 00:00:00
FILE "02 Untitled.flac" WAVE
TRACK 02 AUDIO
TITLE "Untitled"
REM REPLAYGAIN_TRACK_GAIN 8.42 dB
REM REPLAYGAIN_TRACK_PEAK 0.781586
INDEX 01 00:00:00
FILE "03 Untitled.flac" WAVE
TRACK 03 AUDIO
TITLE "Untitled"
REM REPLAYGAIN_TRACK_GAIN -4.04 dB
REM REPLAYGAIN_TRACK_PEAK 0.778137
INDEX 01 00:00:00
FILE "04 Untitled.flac" WAVE
TRACK 04 AUDIO
TITLE "Untitled"
REM REPLAYGAIN_TRACK_GAIN 2.17 dB
REM REPLAYGAIN_TRACK_PEAK 0.728546
INDEX 01 00:00:00
FILE "05 Untitled.flac" WAVE
TRACK 05 AUDIO
TITLE "Untitled"
REM REPLAYGAIN_TRACK_GAIN 4.04 dB
REM REPLAYGAIN_TRACK_PEAK 0.988068
INDEX 01 00:00:00
FILE "06 Untitled.flac" WAVE
TRACK 06 AUDIO
TITLE "Untitled"
REM REPLAYGAIN_TRACK_GAIN -3.70 dB
REM REPLAYGAIN_TRACK_PEAK 0.938232
INDEX 01 00:00:00
FILE "07 Untitled.flac" WAVE
TRACK 07 AUDIO
TITLE "Untitled"
REM REPLAYGAIN_TRACK_GAIN -0.08 dB
REM REPLAYGAIN_TRACK_PEAK 0.686310
INDEX 01 00:00:00
Any questions -> support@pro-jazz.com. По всем вопросам пишите -> support@pro-jazz.com
23:36
181
Нет комментариев. Ваш будет первым!