Вы используете незарегистрированную версию компонента "Вкладки"!

Поиск

(Free Improvisation) Thollem, Parker, Cline - The Gowanus Session - 2012, FLAC (tracks+.cue), lossless

Треклист:
Thollem, Parker, Cline / The Gowanus Session
Жанр: Free Improvisation
Страна-производитель диска: USA
Год издания: 2012
Издатель (лейбл): Porter Rec.
Номер по каталогу: PR4068
Страна: USA
Аудиокодек: FLAC (*.flac)
Тип рипа: tracks+.cue
Битрейт аудио: lossless
Продолжительность: 41:06
Источник (релизер): вата
Наличие сканов в содержимом раздачи: нет
Треклист:
1.There are
2. as many worlds
3. in a life
4. as there are
5. lives
6. in the world
 
Лог создания рипа
X Lossless Decoder version 20120226 (139.1)
XLD extraction logfile from 2012-03-21 19:49:34 -0500
Thollem/Parker/Cline / The Gowanus Session
Used drive : MATSHITA DVD-R UJ-868 (revision KB19)
Ripper mode : XLD Secure Ripper
Disable audio cache : OK for the drive with a cache less than 1375KiB
Make use of C2 pointers : NO
Read offset correction : 102
Max retry count : 20
Gap status : Analyzed, Appended
TOC of the extracted CD
Track | Start | Length | Start sector | End sector
---------------------------------------------------------
1 | 00:00:00 | 07:34:51 | 0 | 34100
2 | 07:34:51 | 04:41:37 | 34101 | 55212
3 | 12:16:13 | 05:58:10 | 55213 | 82072
4 | 18:14:23 | 02:15:50 | 82073 | 92247
5 | 20:29:73 | 15:42:74 | 92248 | 162971
6 | 36:12:72 | 04:53:37 | 162972 | 184983
AccurateRip Summary
Disc not found in AccurateRip DB.
All Tracks
Album gain : -4.77 dB
Peak : 0.972687
Statistics
Read error : 0
Jitter error (maybe fixed) : 0
Retry sector count : 0
Damaged sector count : 0
Track 01
Filename : /Volumes/TimeDrive/CD Rips/Thollem/Parker/Cline - The Gowanus Session (2012) [FLAC]/01 There are.flac
Pre-gap length : 00:02:00
Track gain : -3.30 dB
Peak : 0.972687
CRC32 hash (test run) : BE80DD92
CRC32 hash : BE80DD92
CRC32 hash (skip zero) : E06928C1
AccurateRip signature : A7B5BF32
->Track not present in AccurateRip database.
Statistics
Read error : 0
Jitter error (maybe fixed) : 0
Retry sector count : 0
Damaged sector count : 0
Track 02
Filename : /Volumes/TimeDrive/CD Rips/Thollem/Parker/Cline - The Gowanus Session (2012) [FLAC]/02 as many worlds.flac
Pre-gap length : 00:02:44
Track gain : -3.13 dB
Peak : 0.972687
CRC32 hash (test run) : 705CE7DA
CRC32 hash : 705CE7DA
CRC32 hash (skip zero) : DC60770C
AccurateRip signature : 9FF55DF0
->Track not present in AccurateRip database.
Statistics
Read error : 0
Jitter error (maybe fixed) : 0
Retry sector count : 0
Damaged sector count : 0
Track 03
Filename : /Volumes/TimeDrive/CD Rips/Thollem/Parker/Cline - The Gowanus Session (2012) [FLAC]/03 in a life.flac
Pre-gap length : 00:00:50
Track gain : -4.71 dB
Peak : 0.972687
CRC32 hash (test run) : F2523B02
CRC32 hash : F2523B02
CRC32 hash (skip zero) : 8FD509AE
AccurateRip signature : 71055DE6
->Track not present in AccurateRip database.
Statistics
Read error : 0
Jitter error (maybe fixed) : 0
Retry sector count : 0
Damaged sector count : 0
Track 04
Filename : /Volumes/TimeDrive/CD Rips/Thollem/Parker/Cline - The Gowanus Session (2012) [FLAC]/04 as there are.flac
Pre-gap length : 00:01:37
Track gain : 0.86 dB
Peak : 0.861389
CRC32 hash (test run) : 1E23F159
CRC32 hash : 1E23F159
CRC32 hash (skip zero) : B6DDC5D7
AccurateRip signature : A409155B
->Track not present in AccurateRip database.
Statistics
Read error : 0
Jitter error (maybe fixed) : 0
Retry sector count : 0
Damaged sector count : 0
Track 05
Filename : /Volumes/TimeDrive/CD Rips/Thollem/Parker/Cline - The Gowanus Session (2012) [FLAC]/05 lives.flac
Pre-gap length : 00:02:45
Track gain : -5.18 dB
Peak : 0.972687
CRC32 hash (test run) : DE63C885
CRC32 hash : DE63C885
CRC32 hash (skip zero) : 0DD8DC19
AccurateRip signature : 7A4988D5
->Track not present in AccurateRip database.
Statistics
Read error : 0
Jitter error (maybe fixed) : 0
Retry sector count : 0
Damaged sector count : 0
Track 06
Filename : /Volumes/TimeDrive/CD Rips/Thollem/Parker/Cline - The Gowanus Session (2012) [FLAC]/06 in the world..flac
Pre-gap length : 00:03:08
Track gain : -6.04 dB
Peak : 0.972687
CRC32 hash (test run) : 9455E635
CRC32 hash : 9455E635
CRC32 hash (skip zero) : 539A07B1
AccurateRip signature : 00CE3382
->Track not present in AccurateRip database.
Statistics
Read error : 0
Jitter error (maybe fixed) : 0
Retry sector count : 0
Damaged sector count : 0
No errors occurred
End of status report
 
Содержание индексной карты (.CUE)
TITLE "The Gowanus Session"
PERFORMER "Thollem/Parker/Cline"
CATALOG 0656605773629
REM GENRE "Jazz"
REM DATE "2012"
REM DISCNUMBER 1
REM TOTALDISCS 1
REM DISCID 4809A206
REM REPLAYGAIN_ALBUM_GAIN -4.77 dB
REM REPLAYGAIN_ALBUM_PEAK 0.972687
FILE "01 - There are.flac" WAVE
TRACK 01 AUDIO
TITLE "There are"
ISRC USM3Y1202001
REM COMMENT "Release Date: 4/17/12 on Porter Records"
REM REPLAYGAIN_TRACK_GAIN -3.30 dB
REM REPLAYGAIN_TRACK_PEAK 0.972687
INDEX 01 00:00:00
TRACK 02 AUDIO
TITLE "as many worlds"
ISRC USM3Y1202002
REM COMMENT "Release Date: 4/17/12 on Porter Records"
REM REPLAYGAIN_TRACK_GAIN -3.13 dB
REM REPLAYGAIN_TRACK_PEAK 0.972687
INDEX 00 07:32:07
FILE "02 - as many worlds.flac" WAVE
INDEX 01 00:00:00
TRACK 03 AUDIO
TITLE "in a life"
ISRC USM3Y1202003
REM COMMENT "Release Date: 4/17/12 on Porter Records"
REM REPLAYGAIN_TRACK_GAIN -4.71 dB
REM REPLAYGAIN_TRACK_PEAK 0.972687
INDEX 00 04:40:62
FILE "03 - in a life.flac" WAVE
INDEX 01 00:00:00
TRACK 04 AUDIO
TITLE "as there are"
ISRC USM3Y1202004
REM COMMENT "Release Date: 4/17/12 on Porter Records"
REM REPLAYGAIN_TRACK_GAIN 0.86 dB
REM REPLAYGAIN_TRACK_PEAK 0.861389
INDEX 00 05:56:48
FILE "04 - as there are.flac" WAVE
INDEX 01 00:00:00
TRACK 05 AUDIO
TITLE "lives"
ISRC USM3Y1202005
REM COMMENT "Release Date: 4/17/12 on Porter Records"
REM REPLAYGAIN_TRACK_GAIN -5.18 dB
REM REPLAYGAIN_TRACK_PEAK 0.972687
INDEX 00 02:13:05
FILE "05 - lives.flac" WAVE
INDEX 01 00:00:00
TRACK 06 AUDIO
TITLE "in the world."
ISRC USM3Y1202006
REM COMMENT "Release Date: 4/17/12 on Porter Records"
REM REPLAYGAIN_TRACK_GAIN -6.04 dB
REM REPLAYGAIN_TRACK_PEAK 0.972687
INDEX 00 15:39:66
FILE "06 - in the world..flac" WAVE
INDEX 01 00:00:00
 
Лог проверки качества
Started at: n?aaa, 04. 04. 2012. - 10:23.05
6 files found
1 -===- E:\Temp\Thollem Parker Cline - The Gowanus Session (2012) [FLAC]\01 There are.flac
Extracted successfully
Conclusion: this track is CDDA with probability 100%
Tempfile successfully deleted.
2 -===- E:\Temp\Thollem Parker Cline - The Gowanus Session (2012) [FLAC]\02 as many worlds.flac
Extracted successfully
Conclusion: this track is CDDA with probability 100%
Tempfile successfully deleted.
3 -===- E:\Temp\Thollem Parker Cline - The Gowanus Session (2012) [FLAC]\03 in a life.flac
Extracted successfully
Conclusion: this track is CDDA with probability 99%
Tempfile successfully deleted.
4 -===- E:\Temp\Thollem Parker Cline - The Gowanus Session (2012) [FLAC]\04 as there are.flac
Extracted successfully
Conclusion: this track is CDDA with probability 100%
Tempfile successfully deleted.
5 -===- E:\Temp\Thollem Parker Cline - The Gowanus Session (2012) [FLAC]\05 lives.flac
Extracted successfully
Conclusion: this track is CDDA with probability 100%
Tempfile successfully deleted.
6 -===- E:\Temp\Thollem Parker Cline - The Gowanus Session (2012) [FLAC]\06 in the world..flac
Extracted successfully
Conclusion: this track is CDDA with probability 100%
Tempfile successfully deleted.
Finished at: n?aaa, 04. 04. 2012. - 10:24.47 (operation time: 0:01.41)
 
Об альбоме (сборнике)
There are / as many worlds / in a life / as there are / lives / in the world“The Gowanus Session”: a new trio recording by Thollem McDonas (piano), William Parker (acoustic bass), Nels Cline (electric guitar), that explores the density and subtlety of tones with reverberating layers of sounds. Thollem McDonas approaches the piano brilliantly, leading the listener to image abstract and beautiful worlds within themselves. William Parker, with his mastery of the acoustic bass, brings warmth to the recording that is complex, soaring and joyful. Nels Cline’s innovative and shape shifting guitar runs the range of identifiable guitar to micro-tonal alien transmissions that act as a solid sound foundation. A pinnacle recording from three master improvisers.
 
Состав
Thollem McDonas - piano
William Parker - acoustic bass
Nels Cline - electric guitar
Any questions -> support@pro-jazz.com. По всем вопросам пишите -> support@pro-jazz.com
23:37
255
Нет комментариев. Ваш будет первым!