Вы используете незарегистрированную версию компонента "Вкладки"!

Поиск

(Avant-Garde Jazz, Free Jazz) David Murray & Randy Weston - The Healers - 1987, FLAC (image+.cue), lossless

Треклист:
David Murray & Randy Weston / The Healers
Жанр: Avant-Garde Jazz, Free Jazz
Страна-производитель диска: Italy
Год издания: 1987
Издатель (лейбл): Black Saint
Номер по каталогу: 1201182
Страна: USA
Аудиокодек: APE (*.ape)
Тип рипа: image+.cue
Битрейт аудио: lossless
Продолжительность: 43:39
Источник (релизер): fickoyanka
Наличие сканов в содержимом раздачи: нет
Треклист:
01. Clever Beggar [0:08:18.58]
02. The Healers [0:14:22.70]
03. Mbizo [0:06:15.62]
04. Blue Moses [0:14:41.53]
 
Лог создания рипа
Exact Audio Copy V1.0 beta 1 from 15. November 2010
EAC extraction logfile from 2. April 2012, 19:04
Murray, David & Randy Weston / The Healers (CD, Album)
Used drive : TSSTcorpCDDVDW SH-S202H Adapter: 0 ID: 1
Read mode : Secure
Utilize accurate stream : Yes
Defeat audio cache : Yes
Make use of C2 pointers : No
Read offset correction : 6
Overread into Lead-In and Lead-Out : No
Fill up missing offset samples with silence : Yes
Delete leading and trailing silent blocks : No
Null samples used in CRC calculations : Yes
Used interface : Installed external ASPI interface
Used output format : Monkey's Audio Lossless Encoder
Selected bitrate : High Lossless Compression
Quality : High
Add ID3 tag : Yes
Command line compressor : C:\Program Files\Monkey's Audio\MAC.exe
TOC of the extracted CD
Track | Start | Length | Start sector | End sector
---------------------------------------------------------
1 | 0:00.32 | 8:18.58 | 32 | 37439
2 | 8:19.15 | 14:22.70 | 37440 | 102159
3 | 22:42.10 | 6:15.62 | 102160 | 130346
4 | 28:57.72 | 14:41.53 | 130347 | 196474
Range status and errors
Selected range
Filename E:\AccurateRip\Murray, David & Randy Weston – The Healers.wav
Peak level 100.0 %
Extraction speed 2.4 X
Range quality 99.9 %
Test CRC 3D3AA3FA
Copy CRC 3D3AA3FA
Copy OK
No errors occurred
AccurateRip summary
Track 1 accurately ripped (confidence 1) [3C5493F8]
Track 2 accurately ripped (confidence 1) [15A7D323]
Track 3 accurately ripped (confidence 1) [658948F0]
Track 4 accurately ripped (confidence 1) [81D32F90]
All tracks accurately ripped
End of status report
==== Log checksum 1BAB2986B32D4DEB66C3510D75E6A3EA746122643FFB8C5EA35DE92D81DEC4DC ====
 
Об альбоме (сборнике)
This set of duets by David Murray (doubling on tenor and bass clarinet) and pianist Randy Weston is a bit of a surprise. Rather than performing standards or some of Weston's "hits," the duo stretches out on three obscurities by the two musicians (only Weston's "Blue Moses" is slightly known) and Butch Morris' "Clever Beggar." Weston provides a solid harmonic and rhythmic foundation for Murray's thick-toned but sometimes screeching flights, and the combination works pretty well.
 
Состав
David Murray - tenor saxophone, bass clarinet
Randy Weston - piano
Any questions -> support@pro-jazz.com. По всем вопросам пишите -> support@pro-jazz.com
23:36
200
Нет комментариев. Ваш будет первым!