Поиск

(Modern Creative, Progressive Jazz, World Fusion) Oregon - Winter Light - 1974, FLAC (tracks+.cue), lossless

(Modern Creative, Progressive Jazz, World Fusion) Oregon - Winter Light - 1974, FLAC (tracks+.cue), lossless
Треклист:
Oregon - Winter Light
Жанр: Modern Creative, Progressive Jazz, World Fusion, Folk-Jazz
Год выпуска диска: 1974
Производитель диска: Vanguard, USA
Аудио кодек: FLAC
Тип рипа: tracks+.cue
Битрейт аудио: lossless
Продолжительность: 43:09
Трэклист:
1. Tide Pool 8:34
2. Witchi-Tai-To 3:26
3. Ghost Beads 6:38
4. Deer Path 2:47
5. Fond Libre 5:04
6. Street Dance 2:08
7. Rainmaker 4:27
8. Poesia 5:25
9. Margueritte 4:05
 
Доп. информация
Группа Oregon, образованная в 1970 году в США, один из первых джазовых коллективов, исполнявших world-джаз. Состав Oregon : Ралф Таунер — гитара, фортепиано, французский рожок; Пол Маккэндлс — гобой, бас-кларнет; Гленн Мур — бас-гитара, фортепиано, флейта; Колин Уэлкотт — ударные, перкуссия, ситар.
Можно определить музыку "Орегона" как синтез классической и древней музыки Старого Света, джаза Нового Света и ритмов третьего мира. В наши дни подобная музыка попала бы в категорию new age или world beat, и "Орегон" можно смело назвать предтечей этих направлений. Сами же музыканты вполне довольствовались емким термином — fusion (слияние), который в 70-е часто подразумевал известную "электрификацию" звука — как у Mahavishnu Orchestra, Weather Report или составов Майлса Дэвиса. В отличие от них музыка "Орегона" всегда оставалась камерной и акустической.
Отпочковавшись от известной группы Paul Winter Consort, для которой Таунер написал знаменитую композицию «Icarus», Oregon сумели добиться заметного успеха, благодаря необычным сценическим постановкам своих концертов (с весьма оригинальным освещением и подачей звука в зал), органичному фьюжн джаза и фолк-аранжировок. Музыку группы условно можно охарактеризовать как «акустическую пастораль» (для усиления звука акустических инструментов использовались исключительно микрофоны). Oregon упорно отказывались петь на «утопические» темы, неизменно ассоциирующиеся с подобной музыкой, и потому отличались от всех подобных формаций, в основу которых положен «трансконтинентальный фьюжн».
На альбоме Winter Light впервые была записано "пейотлевое песнопение" Джима Пеппера Witchi-Tai-To (эту вещь также исполнял и Ян Гарбарек) в виде двухминутной импровизации для фортепиано, к которому присоединятся акустическая гитара.
 
Отчёт EAC
Exact Audio Copy V0.99 prebeta 5 from 4. May 2009
EAC extraction logfile from 12. July 2009, 16:35
Oregon / Winter Light
Used drive : ASUS DRW-20B1ST Adapter: 3 ID: 0
Read mode : Secure
Utilize accurate stream : Yes
Defeat audio cache : Yes
Make use of C2 pointers : No
Read offset correction : 6
Overread into Lead-In and Lead-Out : No
Fill up missing offset samples with silence : Yes
Delete leading and trailing silent blocks : No
Null samples used in CRC calculations : Yes
Used interface : Native Win32 interface for Win NT & 2000
Gap handling : Appended to previous track
Used output format : User Defined Encoder
Selected bitrate : 768 kBit/s
Quality : High
Add ID3 tag : No
Command line compressor : C:\Program Files\Exact Audio Copy\FLAC\FLAC.EXE
Additional command line options : -8 -V -T "ARTIST=%a" -T "TITLE=%t" -T "ALBUM=%g" -T "DATE=%y" -T "TRACKNUMBER=%n" -T "GENRE=%m" -T "COMMENT=EAC FLAC -8" %s
TOC of the extracted CD
Track | Start | Length | Start sector | End sector
---------------------------------------------------------
1 | 0:00.00 | 8:38.12 | 0 | 38861
2 | 8:38.12 | 3:30.00 | 38862 | 54611
3 | 12:08.12 | 6:42.00 | 54612 | 84761
4 | 18:50.12 | 2:51.00 | 84762 | 97586
5 | 21:41.12 | 5:09.00 | 97587 | 120761
6 | 26:50.12 | 2:12.00 | 120762 | 130661
7 | 29:02.12 | 4:32.00 | 130662 | 151061
8 | 33:34.12 | 5:30.00 | 151062 | 175811
9 | 39:04.12 | 4:05.13 | 175812 | 194199
Track 1
Filename I:\Torrent\Раздачи\Oregon - Winter Light (1974) [FLAC]\01. Tide Pool.wav
Pre-gap length 0:00:02.00
Peak level 87.7 %
Track quality 100.0 %
Test CRC 8B1D6AAC
Copy CRC 8B1D6AAC
Cannot be verified as accurate (confidence 6) [F1B4CA96], AccurateRip returned [D10A38B6]
Copy OK
Track 2
Filename I:\Torrent\Раздачи\Oregon - Winter Light (1974) [FLAC]\02. Witchi-Tai-To.wav
Pre-gap length 0:00:03.62
Peak level 60.8 %
Track quality 100.0 %
Test CRC 2671D9DB
Copy CRC 2671D9DB
Cannot be verified as accurate (confidence 6) [C0BAFDF8], AccurateRip returned [F562B92F]
Copy OK
Track 3
Filename I:\Torrent\Раздачи\Oregon - Winter Light (1974) [FLAC]\03. Ghost Beads.wav
Pre-gap length 0:00:03.62
Peak level 88.3 %
Track quality 100.0 %
Test CRC FA81E8E8
Copy CRC FA81E8E8
Cannot be verified as accurate (confidence 6) [9439CCE8], AccurateRip returned [F52CF254]
Copy OK
Track 4
Filename I:\Torrent\Раздачи\Oregon - Winter Light (1974) [FLAC]\04. Deer Path.wav
Pre-gap length 0:00:03.62
Peak level 58.1 %
Track quality 99.9 %
Test CRC C44614AE
Copy CRC C44614AE
Cannot be verified as accurate (confidence 6) [0685D7BC], AccurateRip returned [82D21A86]
Copy OK
Track 5
Filename I:\Torrent\Раздачи\Oregon - Winter Light (1974) [FLAC]\05. Fond Libre.wav
Pre-gap length 0:00:03.62
Peak level 74.0 %
Track quality 100.0 %
Test CRC 6CE50D2D
Copy CRC 6CE50D2D
Cannot be verified as accurate (confidence 6) [6B75F8EA], AccurateRip returned [BD58BFE1]
Copy OK
Track 6
Filename I:\Torrent\Раздачи\Oregon - Winter Light (1974) [FLAC]\06. Street Dance.wav
Pre-gap length 0:00:03.62
Peak level 83.6 %
Track quality 100.0 %
Test CRC F8168FD2
Copy CRC F8168FD2
Cannot be verified as accurate (confidence 6) [1A027EBE], AccurateRip returned [04DCE394]
Copy OK
Track 7
Filename I:\Torrent\Раздачи\Oregon - Winter Light (1974) [FLAC]\07. Rainmaker.wav
Pre-gap length 0:00:03.62
Peak level 81.5 %
Track quality 100.0 %
Test CRC 72949E75
Copy CRC 72949E75
Cannot be verified as accurate (confidence 6) [9409160C], AccurateRip returned [52C54BAE]
Copy OK
Track 8
Filename I:\Torrent\Раздачи\Oregon - Winter Light (1974) [FLAC]\08. Poesia.wav
Pre-gap length 0:00:03.62
Peak level 73.5 %
Track quality 100.0 %
Test CRC C5E6D15A
Copy CRC C5E6D15A
Cannot be verified as accurate (confidence 6) [A5C87175], AccurateRip returned [EBB7F838]
Copy OK
Track 9
Filename I:\Torrent\Раздачи\Oregon - Winter Light (1974) [FLAC]\09. Margueritte.wav
Pre-gap length 0:00:03.62
Peak level 82.3 %
Track quality 100.0 %
Test CRC 3F76A949
Copy CRC 3F76A949
Cannot be verified as accurate (confidence 6) [B5EC5D5C], AccurateRip returned [36063248]
Copy OK
No tracks could be verified as accurate
You may have a different pressing from the one(s) in the database
No errors occurred
End of status report
Собственный рип с оригинального диска. Есть сканы.
Download available for power users only.
07:05
165
Нет комментариев. Ваш будет первым!