Поиск

(folk, fusion, Jazz) Mode Plagal CD 2,3 (Greek) - 1998-2001, FLAC (tracks+cue), lossless

(folk, fusion, Jazz) Mode Plagal CD 2,3 (Greek) - 1998-2001, FLAC (tracks+cue), lossless
Треклист:
Mode Plagal CD 2,3
Жанр: folk, Jazz
Год выпуска диска: 1998-2001
Аудио кодек: FLAC
Тип рипа: tracks
Битрейт аудио: lossless
Продолжительность: 02.19.39
Коверы включины в раждачу
 
Трэклист: Mode Plagal II - 1998
01. Funky Vergina [0:05:48.00]
Traditional tune originating from Western Macedonia.
Arranged by Mode Plagal.
02. Miles' Leventikos [0:07:00.73]
(gallant song) Mimis Doutsoulis - Thodoris Rellos NB.
transliterated Greek title: "To Leventiko tou Miles"
03. The Letter [0:09:31.26]
Sender: Asemina Rellou Thodoris Rellos (voice: Th.
Rellos) NB. transliterated Greek title: "To Gramma"
04. Carols [0:06:10.69]
(Traditional Christmas carols originating from Thrace)
Arranged by Mode Plagal NB. transliterated Greek title: "Kalanta"
05. Ulysses [0:01:25.97]
(Improvisation) Mode Plagal NB. transliterated Greek title:
"Odysseas"
06. Kalamatianos [0:04:31.80]
(Folk Dance) Arranged by Mode Plagal. In Memoriam of
Charlie Parker
07. Pikrodafni [0:06:36.42]
(...a Blues) - (traditional song originating from Epirus)
Arranged by Mode Plagal. Vocals: Kl. Antoniou, Th. Rellos, Ant.
Maratos, T. Kanellos and Maria Aristopoulou, Sophia Papazoglou,
Vassilis Hadjinikolaou, Panayotis (Chico) Katsikiotis, whom we thank
for kindly accepting to participate in this album.
08. Helios [0:03:52.20]
(Traditional tune originating from Continental Greece)
Arranged by Mode Plagal. In memoriam of Vassilis Soukas
09. Cyclops [0:00:18.90]
(Improvisation) Mode Plagal NB. transliterated Greek title:
"Kyklopas"
10. Rock Around Eleven [0:03:44.46]
Thodoris Rellos
11. Ivo [0:05:05.80]
(Traditional tune originating from Bulgaria) Arranged by Mode
Plagal
12. Solo Sax [0:02:27.40]
Live recording from Half Note Club, Athens
13. Salona [0:04:15.60]
(Traditional tune originating from Continental Greece)
Arranged by Mode Plagal
14. Solo Drums [0:01:06.13]
(17/17)
15. On Foreign Lands [0:04:42.16]
(Traditional tune originating from Thrace) Arranged
by Mode Plagal NB. transliterated Greek title: " 'Gw sta ksena "
16. Blazing Sun [0:01:44.33]
Mode Plagal NB. transliterated Greek title: "Ntala Helios"
 
Трэклист: Mode Plagal III - 2001
01. A NIGHT IN KARPENISIA (Instrumental)
02. ONCE, THE BIRDS CONFESSED TO ME - Thodoris Rellos
03. DELI PAPAS (Papa-Yiorgis) - Yiota Vei
04. LERIKOS (Gaida - Bagpipe) - Cleon Antoniou
05. THRACIAN CHRISTMAS CAROLS - Savina Yannatou
06. PERISTEROUDA (Bossa 7/8) - Cleon Antoniou
07. ON MAVRIANOS' THRESHING YARD - Yiota Vei
08. LADS ACROSS YOUR NEIGHBOURHOOD - Theodosia Tsatsou
09. TROIS ENFANTS DE VOLIOTIQUE (Instrumental)
10. BLACK SWALLOWS - Eleni Tsaligopoulou
11. LEMNOS (Instrumental)
12. LITTLE MOON - Thodoris Rellos, Cleon Antoniou
13. DEMETRO (Instrumental)
 
Отчет EAC
 
CD 2
Exact Audio Copy V0.99 prebeta 4 from 23. January 2008
EAC extraction logfile from 7. October 2008, 13:27
Mode Plagal / Mode Plagal II
Used drive : TSSTcorpCD/DVDW SH-S182D Adapter: 1 ID: 0
Read mode : Secure
Utilize accurate stream : Yes
Defeat audio cache : No
Make use of C2 pointers : Yes
Read offset correction : 6
Overread into Lead-In and Lead-Out : No
Fill up missing offset samples with silence : Yes
Delete leading and trailing silent blocks : No
Null samples used in CRC calculations : Yes
Used interface : Installed external ASPI interface
Gap handling : Not detected, thus appended to previous track
Used output format : User Defined Encoder
Selected bitrate : 1024 kBit/s
Quality : High
Add ID3 tag : Yes
Command line compressor : C:\Program Files\Exact Audio Copy\FLAC\FLAC.EXE
Additional command line options : -3 -b 1024 -T "ARTIST=%a" -T "TITLE=%t" -T "ALBUM=%g" -T "DATE=%y" -T "TRACKNUMBER=%n" -T "GENRE=%m" -T "COMMENT=%e" %s -o %d
TOC of the extracted CD
Track | Start | Length | Start sector | End sector
---------------------------------------------------------
1 | 0:00.00 | 5:48.00 | 0 | 26099
2 | 5:48.00 | 7:00.55 | 26100 | 57654
3 | 12:48.55 | 9:31.20 | 57655 | 100499
4 | 22:20.00 | 6:10.52 | 100500 | 128301
5 | 28:30.52 | 1:25.73 | 128302 | 134749
6 | 29:56.50 | 4:31.60 | 134750 | 155134
7 | 34:28.35 | 6:36.32 | 155135 | 184866
8 | 41:04.67 | 3:52.15 | 184867 | 202281
9 | 44:57.07 | 0:18.68 | 202282 | 203699
10 | 45:16.00 | 3:44.35 | 203700 | 220534
11 | 49:00.35 | 5:05.60 | 220535 | 243469
12 | 54:06.20 | 2:27.30 | 243470 | 254524
13 | 56:33.50 | 4:15.45 | 254525 | 273694
14 | 60:49.20 | 1:06.10 | 273695 | 278654
15 | 61:55.30 | 4:42.12 | 278655 | 299816
16 | 66:37.42 | 1:44.25 | 299817 | 307641
Track 1
Filename E:\New Folder\01. Mode Plagal - Funky ВесгЯнб.wav
Peak level 98.8 %
Track quality 100.0 %
Copy CRC 3C0C5F8B
Cannot be verified as accurate (confidence 1) [29C89A6C], AccurateRip returned [AFF98D30]
Copy OK
Track 2
Filename E:\New Folder\02. Mode Plagal - Фп ЛевЭнфйкп фпх Miles.wav
Peak level 98.4 %
Track quality 99.9 %
Copy CRC 4B747EB4
Cannot be verified as accurate (confidence 1) [9B054F26], AccurateRip returned [5DA7D518]
Copy OK
Track 3
Filename E:\New Folder\03. Mode Plagal - Фп ГсЬммб.wav
Peak level 98.5 %
Track quality 100.0 %
Copy CRC C0BD189B
Cannot be verified as accurate (confidence 1) [A5A84E89], AccurateRip returned [8D86F187]
Copy OK
Track 4
Filename E:\New Folder\04. Mode Plagal - КЬлбнфб.wav
Peak level 98.8 %
Track quality 99.9 %
Copy CRC 6262B901
Cannot be verified as accurate (confidence 1) [43A5519D], AccurateRip returned [AD8822A1]
Copy OK
Track 5
Filename E:\New Folder\05. Mode Plagal - ПдхууЭбт.wav
Peak level 98.1 %
Track quality 100.0 %
Copy CRC EB0AA184
Cannot be verified as accurate (confidence 1) [226008C5], AccurateRip returned [8B4BCDC5]
Copy OK
Track 6
Filename E:\New Folder\06. Mode Plagal - Кблбмбфйбньт.wav
Peak level 93.7 %
Track quality 100.0 %
Copy CRC FD36F202
Cannot be verified as accurate (confidence 1) [BC49B043], AccurateRip returned [45CA5B4F]
Copy OK
Track 7
Filename E:\New Folder\07. Mode Plagal - РйкспдЬцнз.wav
Peak level 99.5 %
Track quality 100.0 %
Copy CRC ABB30088
Cannot be verified as accurate (confidence 1) [EB91698B], AccurateRip returned [D9DB1157]
Copy OK
Track 8
Filename E:\New Folder\08. Mode Plagal - №лйпт.wav
Peak level 98.5 %
Track quality 100.0 %
Copy CRC 43074EA6
Cannot be verified as accurate (confidence 1) [0F6E09D6], AccurateRip returned [BC8F952A]
Copy OK
Track 9
Filename E:\New Folder\09. Mode Plagal - Кэклщрбт.wav
Peak level 98.3 %
Track quality 100.0 %
Copy CRC 85ED189F
Cannot be verified as accurate (confidence 1) [4DB8D207], AccurateRip returned [1DA8EFCC]
Copy OK
Track 10
Filename E:\New Folder\10. Mode Plagal - Rock Around Eleven.wav
Peak level 98.9 %
Track quality 100.0 %
Copy CRC 1F37BAE5
Cannot be verified as accurate (confidence 1) [70B2162B], AccurateRip returned [AE738DD0]
Copy OK
Track 11
Filename E:\New Folder\11. Mode Plagal - Ivo.wav
Peak level 98.6 %
Track quality 100.0 %
Copy CRC F1D11E19
Cannot be verified as accurate (confidence 1) [B75BE62F], AccurateRip returned [D2E3B895]
Copy OK
Track 12
Filename E:\New Folder\12. Mode Plagal - Solo Sax.wav
Peak level 86.4 %
Track quality 100.0 %
Copy CRC 9A83928B
Cannot be verified as accurate (confidence 1) [3896EA27], AccurateRip returned [E4A6B583]
Copy OK
Track 13
Filename E:\New Folder\13. Mode Plagal - УЬлщнб.wav
Peak level 98.4 %
Track quality 99.9 %
Copy CRC CB2471D4
Cannot be verified as accurate (confidence 1) [6324A87D], AccurateRip returned [D10C6D49]
Copy OK
Track 14
Filename E:\New Folder\14. Mode Plagal - Solo Drums.wav
Peak level 98.1 %
Track quality 100.0 %
Copy CRC 366199BD
Cannot be verified as accurate (confidence 1) [6DFE6D49], AccurateRip returned [F7D24E6B]
Copy OK
Track 15
Filename E:\New Folder\15. Mode Plagal - 'Гщ Уфб ОЭнб.wav
Peak level 93.9 %
Track quality 100.0 %
Copy CRC 432CAF24
Cannot be verified as accurate (confidence 1) [17243C45], AccurateRip returned [28B1FE91]
Copy OK
Track 16
Filename E:\New Folder\16. Mode Plagal - НфЬлб №лйпт.wav
Peak level 98.7 %
Track quality 100.0 %
Copy CRC 82690294
Cannot be verified as accurate (confidence 1) [A599E6F6], AccurateRip returned [ADE9FE42]
Copy OK
No tracks could be verified as accurate
You may have a different pressing from the one(s) in the database
No errors occurred
End of status report
 
CD 3
Exact Audio Copy V0.99 prebeta 4 from 23. January 2008
EAC extraction logfile from 8. October 2008, 16:25
Various / Mode Plagal III
Used drive : TSSTcorpCD/DVDW SH-S182D Adapter: 1 ID: 0
Read mode : Secure
Utilize accurate stream : Yes
Defeat audio cache : No
Make use of C2 pointers : Yes
Read offset correction : 6
Overread into Lead-In and Lead-Out : No
Fill up missing offset samples with silence : Yes
Delete leading and trailing silent blocks : No
Null samples used in CRC calculations : Yes
Used interface : Installed external ASPI interface
Gap handling : Not detected, thus appended to previous track
Used output format : User Defined Encoder
Selected bitrate : 1024 kBit/s
Quality : High
Add ID3 tag : Yes
Command line compressor : C:\Program Files\Exact Audio Copy\FLAC\FLAC.EXE
Additional command line options : -3 -b 1024 -T "ARTIST=%a" -T "TITLE=%t" -T "ALBUM=%g" -T "DATE=%y" -T "TRACKNUMBER=%n" -T "GENRE=%m" -T "COMMENT=%e" %s -o %d
TOC of the extracted CD
Track | Start | Length | Start sector | End sector
---------------------------------------------------------
1 | 0:00.00 | 6:14.12 | 0 | 28061
2 | 6:14.12 | 4:28.68 | 28062 | 48229
3 | 10:43.05 | 6:44.65 | 48230 | 78594
4 | 17:27.70 | 6:39.30 | 78595 | 108549
5 | 24:07.25 | 5:14.60 | 108550 | 132159
6 | 29:22.10 | 2:40.47 | 132160 | 144206
7 | 32:02.57 | 6:56.40 | 144207 | 175446
8 | 38:59.22 | 4:43.40 | 175447 | 196711
9 | 43:42.62 | 4:20.65 | 196712 | 216276
10 | 48:03.52 | 3:54.33 | 216277 | 233859
11 | 51:58.10 | 7:09.60 | 233860 | 266094
12 | 59:07.70 | 6:15.60 | 266095 | 294279
13 | 65:23.55 | 5:53.25 | 294280 | 320779
Track 1
Filename E:\New Folder\01. Mode Plagal - A night in Karpenisia.wav
Peak level 99.9 %
Track quality 100.0 %
Copy CRC 71298652
Accurately ripped (confidence 2) [7B89054E]
Copy OK
Track 2
Filename E:\New Folder\02. Mode Plagal - ЕмЭнб мпх фп 'рбн фб рпхлйЬ.wav
Peak level 99.9 %
Track quality 100.0 %
Copy CRC 04D78CF0
Accurately ripped (confidence 2) [EFF19684]
Copy OK
Track 3
Filename E:\New Folder\03. Гйюфб ВЭз - НфелЮ РбрЬт (Рбрб-Гйюсгзт).wav
Peak level 99.9 %
Track quality 100.0 %
Copy CRC 65BB5176
Accurately ripped (confidence 2) [133B193E]
Copy OK
Track 4
Filename E:\New Folder\04. Mode Plagal - Лесйкьт (ГкЬйнфб).wav
Peak level 99.9 %
Track quality 100.0 %
Copy CRC DCE3AD8A
Accurately ripped (confidence 2) [4B306E2C]
Copy OK
Track 5
Filename E:\New Folder\05. УбвЯнб ГйбннЬфпх - КЬлбнфб ИсЬкзт.wav
Peak level 99.9 %
Track quality 100.0 %
Copy CRC 2AF478E8
Accurately ripped (confidence 2) [01C1C251]
Copy OK
Track 6
Filename E:\New Folder\06. Mode Plagal - Ресйуфеспэдб (Bossa 7-8).wav
Peak level 99.9 %
Track quality 100.0 %
Copy CRC 5EDFE6CA
Accurately ripped (confidence 2) [98085889]
Copy OK
Track 7
Filename E:\New Folder\07. Гйюфб ВЭз - Уфпх мбхсйЬнпх ф' блюнй.wav
Peak level 99.9 %
Track quality 100.0 %
Copy CRC 98978806
Accurately ripped (confidence 2) [0769C64B]
Copy OK
Track 8
Filename E:\New Folder\08. ИепдпуЯб ФуЬфупх - Фб рбйдйЬ фзт гейфпнйЬт упх.wav
Peak level 99.9 %
Track quality 100.0 %
Copy CRC 93D8C33D
Accurately ripped (confidence 2) [8822DDB9]
Copy OK
Track 9
Filename E:\New Folder\09. Mode Plagal - Trois enfants de Voliotique (Фсйб рбйдйЬ вплйюфйкб).wav
Peak level 99.9 %
Track quality 100.0 %
Copy CRC E1619884
Accurately ripped (confidence 2) [5B4DF340]
Copy OK
Track 10
Filename E:\New Folder\10. ЕлЭнз Фублйгпрпэлпх - Мбэсб Челйдьнйб.wav
Peak level 99.9 %
Track quality 100.0 %
Copy CRC D47B50C6
Accurately ripped (confidence 2) [EFF6F738]
Copy OK
Track 11
Filename E:\New Folder\11. Mode Plagal - ЛЮмнпт.wav
Peak level 99.9 %
Track quality 100.0 %
Copy CRC 109BB356
Accurately ripped (confidence 2) [2D1EF04A]
Copy OK
Track 12
Filename E:\New Folder\12. Mode Plagal - ЦеггбсЬкй.wav
Peak level 99.9 %
Track quality 100.0 %
Copy CRC B84E2079
Accurately ripped (confidence 2) [C1E396F1]
Copy OK
Track 13
Filename E:\New Folder\13. ПсчЮуфсб - Дзмзфсю.wav
Peak level 99.9 %
Track quality 100.0 %
Copy CRC 7369667B
Accurately ripped (confidence 2) [06B9A5FC]
Copy OK
All tracks accurately ripped
No errors occurred
End of status report
Download available for power users only.
07:04
204
Нет комментариев. Ваш будет первым!