Поиск

(bossa nova, jazzy) J Rocc - Taster`s Choice Disk 1 - ????, FLAC (tracks+.cue), lossless

(bossa nova, jazzy) J Rocc - Taster`s Choice Disk 1 - ????, FLAC (tracks+.cue), lossless
Треклист:
J Rocc - Taster`s Choice Disk 1
Жанр: bossa nova, jazzy
Год выпуска диска: ????
Производитель диска: US
Аудио кодек: FLAC
Тип рипа: tracks
Битрейт аудио: lossless
Продолжительность: 70m
Трэклист:
01. J. Rocc -- Sergio Mendes 00:00
02. J. Rocc -- Sergio Mendes 2 02:03
03. J. Rocc -- Cal Tjader 04:56
04. J. Rocc -- Cal Tjader 2 07:38
05. J. Rocc -- Jorge Ben 10:36
06. J. Rocc -- (Hype Shit) 13:30
07. J. Rocc -- Brazilian Beats 15:24
08. J. Rocc -- Kenyetta 17:24
09. J. Rocc -- Que 2 19:36
10. J. Rocc -- Latin Beats 22:53
11. J. Rocc -- Tempo 70 29:26
12. J. Rocc -- (Classic Shit) 31:56
13. J. Rocc -- Azymuth 35:15
14. J. Rocc -- Brazilintime 37:51
15. J. Rocc -- Bailar 39:34
16. J. Rocc -- Chants 46:13
17. J. Rocc -- Thats Nice 54:34
18. J. Rocc -- Outro 59:11
Доп. информация: .
Красивый босса нова микс.
LOG
Exact Audio Copy V0.99 prebeta 4 from 23. January 2008
EAC extraction logfile from 16. September 2008, 21:27
J Rocc (Beat Junkies) / Taster's Choice Disk 1
Used drive : HL-DT-STRW/DVD GCC-4247N Adapter: 1 ID: 0
Read mode : Secure
Utilize accurate stream : Yes
Defeat audio cache : Yes
Make use of C2 pointers : No
Read offset correction : 102
Overread into Lead-In and Lead-Out : No
Fill up missing offset samples with silence : Yes
Delete leading and trailing silent blocks : No
Null samples used in CRC calculations : Yes
Used interface : Native Win32 interface for Win NT & 2000
Gap handling : Not detected, thus appended to previous track
Used output format : User Defined Encoder
Selected bitrate : 192 kBit/s
Quality : High
Add ID3 tag : Yes
Command line compressor : C:\Program Files\Exact Audio Copy\Flac\flac.exe
Additional command line options : -V -8 -T "artist=%a" -T "title=%t" -T "album=%g" -T "date=%y" -T "tracknumber=%n" -T "genre=%m" %s
TOC of the extracted CD
Track | Start | Length | Start sector | End sector
---------------------------------------------------------
1 | 0:00.00 | 2:02.72 | 0 | 9221
2 | 2:02.72 | 2:53.43 | 9222 | 22239
3 | 4:56.40 | 2:41.68 | 22240 | 34382
4 | 7:38.33 | 2:57.41 | 34383 | 47698
5 | 10:35.74 | 2:54.36 | 47699 | 60784
6 | 13:30.35 | 1:53.51 | 60785 | 69310
7 | 15:24.11 | 2:00.37 | 69311 | 78347
8 | 17:24.48 | 2:11.57 | 78348 | 88229
9 | 19:36.30 | 3:16.42 | 88230 | 102971
10 | 22:52.72 | 6:33.54 | 102972 | 132500
11 | 29:26.51 | 2:29.14 | 132501 | 143689
12 | 31:55.65 | 3:19.14 | 143690 | 158628
13 | 35:15.04 | 2:36.49 | 158629 | 170377
14 | 37:51.53 | 1:42.74 | 170378 | 178101
15 | 39:34.52 | 6:38.14 | 178102 | 207965
16 | 46:12.66 | 8:21.63 | 207966 | 245603
17 | 54:34.54 | 4:36.08 | 245604 | 266311
18 | 59:10.62 | 3:31.69 | 266312 | 282205
Track 1
Filename X:\Musak\Funk_soul_downtempo_etc\J Rocc (Beat Junkies) - Tasters Choice Disk 1 (FLAC)\01. J Rocc (Beat Junkies) - Taster's Choice Disk 1 - Track01.wav
Peak level 100.0 %
Track quality 100.0 %
Test CRC 9CB123DA
Copy CRC 9CB123DA
Track not present in AccurateRip database
Copy OK
Track 2
Filename X:\Musak\Funk_soul_downtempo_etc\J Rocc (Beat Junkies) - Tasters Choice Disk 1 (FLAC)\02. J Rocc (Beat Junkies) - Taster's Choice Disk 1 - Track02.wav
Peak level 100.0 %
Track quality 100.0 %
Test CRC 2FB11944
Copy CRC 2FB11944
Track not present in AccurateRip database
Copy OK
Track 3
Filename X:\Musak\Funk_soul_downtempo_etc\J Rocc (Beat Junkies) - Tasters Choice Disk 1 (FLAC)\03. J Rocc (Beat Junkies) - Taster's Choice Disk 1 - Track03.wav
Peak level 100.0 %
Track quality 100.0 %
Test CRC FA0D6122
Copy CRC FA0D6122
Track not present in AccurateRip database
Copy OK
Track 4
Filename X:\Musak\Funk_soul_downtempo_etc\J Rocc (Beat Junkies) - Tasters Choice Disk 1 (FLAC)\04. J Rocc (Beat Junkies) - Taster's Choice Disk 1 - Track04.wav
Peak level 100.0 %
Track quality 100.0 %
Test CRC A16B66AA
Copy CRC A16B66AA
Track not present in AccurateRip database
Copy OK
Track 5
Filename X:\Musak\Funk_soul_downtempo_etc\J Rocc (Beat Junkies) - Tasters Choice Disk 1 (FLAC)\05. J Rocc (Beat Junkies) - Taster's Choice Disk 1 - Track05.wav
Peak level 97.5 %
Track quality 100.0 %
Test CRC 99BF1C31
Copy CRC 99BF1C31
Track not present in AccurateRip database
Copy OK
Track 6
Filename X:\Musak\Funk_soul_downtempo_etc\J Rocc (Beat Junkies) - Tasters Choice Disk 1 (FLAC)\06. J Rocc (Beat Junkies) - Taster's Choice Disk 1 - Track06.wav
Peak level 100.0 %
Track quality 100.0 %
Test CRC 74AC1155
Copy CRC 74AC1155
Track not present in AccurateRip database
Copy OK
Track 7
Filename X:\Musak\Funk_soul_downtempo_etc\J Rocc (Beat Junkies) - Tasters Choice Disk 1 (FLAC)\07. J Rocc (Beat Junkies) - Taster's Choice Disk 1 - Track07.wav
Peak level 100.0 %
Track quality 100.0 %
Test CRC CE8B032A
Copy CRC CE8B032A
Track not present in AccurateRip database
Copy OK
Track 8
Filename X:\Musak\Funk_soul_downtempo_etc\J Rocc (Beat Junkies) - Tasters Choice Disk 1 (FLAC)\08. J Rocc (Beat Junkies) - Taster's Choice Disk 1 - Track08.wav
Peak level 100.0 %
Track quality 100.0 %
Test CRC 5D7BA250
Copy CRC 5D7BA250
Track not present in AccurateRip database
Copy OK
Track 9
Filename X:\Musak\Funk_soul_downtempo_etc\J Rocc (Beat Junkies) - Tasters Choice Disk 1 (FLAC)\09. J Rocc (Beat Junkies) - Taster's Choice Disk 1 - Track09.wav
Peak level 100.0 %
Track quality 99.9 %
Test CRC 5D94A6FA
Copy CRC 5D94A6FA
Track not present in AccurateRip database
Copy OK
Track 10
Filename X:\Musak\Funk_soul_downtempo_etc\J Rocc (Beat Junkies) - Tasters Choice Disk 1 (FLAC)\10. J Rocc (Beat Junkies) - Taster's Choice Disk 1 - Track10.wav
Peak level 100.0 %
Track quality 100.0 %
Test CRC 184420F9
Copy CRC 184420F9
Track not present in AccurateRip database
Copy OK
Track 11
Filename X:\Musak\Funk_soul_downtempo_etc\J Rocc (Beat Junkies) - Tasters Choice Disk 1 (FLAC)\11. J Rocc (Beat Junkies) - Taster's Choice Disk 1 - Track11.wav
Peak level 96.8 %
Track quality 100.0 %
Test CRC 5A0B2CF9
Copy CRC 5A0B2CF9
Track not present in AccurateRip database
Copy OK
Track 12
Filename X:\Musak\Funk_soul_downtempo_etc\J Rocc (Beat Junkies) - Tasters Choice Disk 1 (FLAC)\12. J Rocc (Beat Junkies) - Taster's Choice Disk 1 - Track12.wav
Peak level 86.3 %
Track quality 100.0 %
Test CRC 297875FF
Copy CRC 297875FF
Track not present in AccurateRip database
Copy OK
Track 13
Filename X:\Musak\Funk_soul_downtempo_etc\J Rocc (Beat Junkies) - Tasters Choice Disk 1 (FLAC)\13. J Rocc (Beat Junkies) - Taster's Choice Disk 1 - Track13.wav
Peak level 100.0 %
Track quality 100.0 %
Test CRC 3C49B108
Copy CRC 3C49B108
Track not present in AccurateRip database
Copy OK
Track 14
Filename X:\Musak\Funk_soul_downtempo_etc\J Rocc (Beat Junkies) - Tasters Choice Disk 1 (FLAC)\14. J Rocc (Beat Junkies) - Taster's Choice Disk 1 - Track14.wav
Peak level 100.0 %
Track quality 100.0 %
Test CRC 0C1CBD70
Copy CRC 0C1CBD70
Track not present in AccurateRip database
Copy OK
Track 15
Filename X:\Musak\Funk_soul_downtempo_etc\J Rocc (Beat Junkies) - Tasters Choice Disk 1 (FLAC)\15. J Rocc (Beat Junkies) - Taster's Choice Disk 1 - Track15.wav
Peak level 100.0 %
Track quality 100.0 %
Test CRC 9603DB3E
Copy CRC 9603DB3E
Track not present in AccurateRip database
Copy OK
Track 16
Filename X:\Musak\Funk_soul_downtempo_etc\J Rocc (Beat Junkies) - Tasters Choice Disk 1 (FLAC)\16. J Rocc (Beat Junkies) - Taster's Choice Disk 1 - Track16.wav
Peak level 99.2 %
Track quality 100.0 %
Test CRC AD84833B
Copy CRC AD84833B
Track not present in AccurateRip database
Copy OK
Track 17
Filename X:\Musak\Funk_soul_downtempo_etc\J Rocc (Beat Junkies) - Tasters Choice Disk 1 (FLAC)\17. J Rocc (Beat Junkies) - Taster's Choice Disk 1 - Track17.wav
Peak level 100.0 %
Track quality 100.0 %
Test CRC 21646B95
Copy CRC 21646B95
Track not present in AccurateRip database
Copy OK
Track 18
Filename X:\Musak\Funk_soul_downtempo_etc\J Rocc (Beat Junkies) - Tasters Choice Disk 1 (FLAC)\18. J Rocc (Beat Junkies) - Taster's Choice Disk 1 - Track18.wav
Peak level 100.0 %
Track quality 100.0 %
Test CRC 32F74A03
Copy CRC 32F74A03
Track not present in AccurateRip database
Copy OK
None of the tracks are present in the AccurateRip database
No errors occurred
End of status report

Ищу другие части в Lossless.
08:03
263
Нет комментариев. Ваш будет первым!