Поиск

(Jazz / Latin Jazz) Poncho Sanchez - Do It! - 2005, APE (image+.cue), lossless

(Jazz / Latin Jazz) Poncho Sanchez - Do It! - 2005, APE (image+.cue), lossless
Треклист:
Poncho Sanchez - Do It!
Жанр: Jazz / Latin Jazz
Год выпуска диска: 2005
Производитель диска: RUS
Аудио кодек: APE
Тип рипа: image+.cue
Битрейт аудио: lossless
Продолжительность: 60:45
Трэклист:
1. Tin Tin Deo
2. Ha Lese Le Di Khanna
3. Do It
4. Squib Cakes
5. Yo Quisiera
6. African Flower
7. Short Dog
8. Shotgun Slim
9. The Kyper
10. Child Of The Earth
11. Together
Доп. информация: Перкуссионист Sanchez представляет материал своей пластинки «Do It!», в записи которой приняла участие известная в 70-х фанк-группа Tower of Power и южно-африканский музыкант Hugh Masekela.
 
Лог EAC
Exact Audio Copy V0.99 prebeta 4 from 23. January 2008
Отчёт EAC об извлечении, выполненном 13. июля 2009, 5:34
Poncho Sanchez / Do It!
Дисковод: Optiarc DVD RW AD-5200S Adapter: 0 ID: 0
Режим чтения : Достоверность
Использование точного потока : Да
Отключение кэша аудио : Да
Использование указателей C2 : Нет
Коррекция смещения при чтении : 48
Способность читать области Lead-in и Lead-out : Нет
Заполнение пропущенных сэмплов тишиной : Да
Удаление блоков с тишиной в начале и конце : Нет
При вычислениях CRC использовались нулевые сэмплы : Да
Интерфейс : Установленный внешний ASPI-интерфейс
Выходной формат : Внутренние WAV-операции
Формат сэмплов : 44.100 Гц; 16 бит; стерео
TOC извлечённого CD
Трек | Старт | Длительность | Начальный сектор | Конечный сектор
---------------------------------------------------------------------
1 | 0:00.00 | 5:56.71 | 0 | 26770
2 | 5:56.71 | 5:32.40 | 26771 | 51710
3 | 11:29.36 | 6:40.20 | 51711 | 81730
4 | 18:09.56 | 4:20.50 | 81731 | 101280
5 | 22:30.31 | 6:27.14 | 101281 | 130319
6 | 28:57.45 | 5:11.57 | 130320 | 153701
7 | 34:09.27 | 4:44.26 | 153702 | 175027
8 | 38:53.53 | 4:22.01 | 175028 | 194678
9 | 43:15.54 | 4:04.68 | 194679 | 213046
10 | 47:20.47 | 6:33.07 | 213047 | 242528
11 | 53:53.54 | 5:12.35 | 242529 | 265963
Характеристики диапазона извлечения и сообщения об ошибках
Выбранный диапазон
Имя файла D:\3322\Poncho Sanchez - 2005 - Do It!\Poncho Sanchez - Do It!.wav
Пиковый уровень 100.0 %
Качество диапазона 100.0 %
CRC теста 72F4C428
CRC копии 72F4C428
Копирование... OK
Ошибок не произошло
Конец отчёта
 
Лог Чекера
AUDIOCHECKER v2.0 beta (build 457) - by Dester - opdester@freemail.hu
~~~~~~~~~~~~~~~~~~~~~~~~~~~~~~~~~~
Started at: понедельник, 13. 07. 2009. - 18:32.24
1 file found
1 -===- D:\3322\Poncho Sanchez - 2005 - Do It!\Poncho Sanchez - Do It!.wav
Conclusion: this track is CDDA with probability 100%
Finished at: понедельник, 13. 07. 2009. - 18:38.02 (operation time: 0:05.38)
 
Лог CUE
REM GENRE Jazz
REM DATE 2005
REM DISCID 950DDA0B
REM COMMENT "ExactAudioCopy v0.99pb4"
PERFORMER "Poncho Sanchez"
TITLE "Do It!"
FILE "Poncho Sanchez - Do It!.ape" WAVE
TRACK 01 AUDIO
TITLE "Tin Tin Deo"
PERFORMER "Poncho Sanchez"
INDEX 01 00:00:00
TRACK 02 AUDIO
TITLE "Ha Lese Le De Khanna"
PERFORMER "Poncho Sanchez"
INDEX 01 05:56:71
TRACK 03 AUDIO
TITLE "Do It!"
PERFORMER "Poncho Sanchez"
INDEX 01 11:29:36
TRACK 04 AUDIO
TITLE "Squib Cakes"
PERFORMER "Poncho Sanchez"
INDEX 00 18:07:64
INDEX 01 18:09:56
TRACK 05 AUDIO
TITLE "Yo Quisiera"
PERFORMER "Poncho Sanchez"
INDEX 00 22:28:59
INDEX 01 22:30:31
TRACK 06 AUDIO
TITLE "African Flower"
PERFORMER "Poncho Sanchez"
INDEX 00 28:54:68
INDEX 01 28:57:45
TRACK 07 AUDIO
TITLE "Short Dog"
PERFORMER "Poncho Sanchez"
INDEX 00 34:07:31
INDEX 01 34:09:27
TRACK 08 AUDIO
TITLE "Shotgun Slim"
PERFORMER "Poncho Sanchez"
INDEX 01 38:53:53
TRACK 09 AUDIO
TITLE "The Kyper"
PERFORMER "Poncho Sanchez"
INDEX 00 43:14:07
INDEX 01 43:15:54
TRACK 10 AUDIO
TITLE "Child Of The Earth"
PERFORMER "Poncho Sanchez"
INDEX 01 47:20:47
TRACK 11 AUDIO
TITLE "Together"
PERFORMER "Poncho Sanchez"
INDEX 01 53:53:54
Источник - мой рип с пиратской копии оригинального CD Concord Picante CCD - 2290 - 2 , картинки в теме.
Download available for power users only.
07:03
212
Нет комментариев. Ваш будет первым!