Поиск

(Latin Jazz, Crossover Jazz) Herbie Mann - Opalescence - 1989, FLAC (image+.cue), lossless

(Latin Jazz, Crossover Jazz) Herbie Mann - Opalescence - 1989, FLAC (image+.cue), lossless
Треклист:
Herbie Mann - Opalescence
Жанр: Latin Jazz, Crossover Jazz
Год выпуска диска: 1989
Производитель диска: GAIA Records, Germany
Аудио кодек: FLAC
Тип рипа: image+.cue
Битрейт аудио: lossless
Продолжительность: 48:59
Трэклист:
1. Dona Palmeira (Ivan Lins/Vitor Martins) 5:56
2. Comin' Home Baby (Ben Tucker/Rudy Stevenson) 6:17
3. Song for Lea (Mark Soskin) 3:39
4. Bahia De Todas as Contas (Gilberto Gil/Tracy Mann) 6:16
5. Dry Land (Marcos Silva) 4:46
6. Two Rivers (Do Oiapoque Ao Chui) (Ivan Lins) 5:39
7. Sir Charles Duke (Herbie Mann) 4:40
8. Number Fifty-Five (Ricardo Silveira) 6:57
9. Calling You (Bob Telson) 3:45
Personnel:
Herbie Mann (Flute)
Paul Socolow (Double Bass)
Mark Soskin (Keyboards)
Cyro Baptista (Percussion)
Ricky Sebastian (Drums)
Ricardo Silveira (Guitar) - 1,3,5,8
Romero Lubambo (Guitar) - 4,7
Robben Ford (Guitar) - 2

Херби Мэнн (Herbie Mann) - выдающийся джазовый флейтист, умер в возрасте 73 лет 1-го июля 2003г.
 
Лог EAC
Exact Audio Copy V0.99 prebeta 4 from 23. January 2008
EAC extraction logfile from 14. June 2009, 8:57
Herbie Mann / Opalescence
Used drive : _NEC DVD_RW ND-3500AG Adapter: 0 ID: 0
Read mode : Secure
Utilize accurate stream : Yes
Defeat audio cache : Yes
Make use of C2 pointers : No
Read offset correction : 48
Overread into Lead-In and Lead-Out : No
Fill up missing offset samples with silence : Yes
Delete leading and trailing silent blocks : No
Null samples used in CRC calculations : Yes
Used interface : Native Win32 interface for Win NT & 2000
Used output format : User Defined Encoder
Selected bitrate : 768 kBit/s
Quality : High
Add ID3 tag : No
Command line compressor : C:\Program Files\Exact Audio Copy\FLAC\FLAC.EXE
Additional command line options : -6 -V -T "ARTIST=%a" -T "TITLE=%t" -T "ALBUM=%g" -T "DATE=%y" -T "TRACKNUMBER=%n" -T "GENRE=%m" -T "COMMENT=%e" %s -o %d
TOC of the extracted CD
Track | Start | Length | Start sector | End sector
---------------------------------------------------------
1 | 0:00.00 | 5:57.25 | 0 | 26799
2 | 5:57.25 | 6:17.50 | 26800 | 55124
3 | 12:15.00 | 3:39.35 | 55125 | 71584
4 | 15:54.35 | 6:18.02 | 71585 | 99936
5 | 22:12.37 | 4:46.13 | 99937 | 121399
6 | 26:58.50 | 5:39.50 | 121400 | 146874
7 | 32:38.25 | 4:40.42 | 146875 | 167916
8 | 37:18.67 | 6:57.25 | 167917 | 199216
9 | 44:16.17 | 3:44.58 | 199217 | 216074
Range status and errors
Selected range
Filename J:\eMusic\Rip\Herbie Mann - Opalescence.wav
Peak level 73.7 %
Range quality 99.9 %
Copy CRC 5DE637FE
Copy OK
No errors occurred
AccurateRip summary
Track 1 accurately ripped (confidence 1) [181707C7]
Track 2 accurately ripped (confidence 1) [4067C9C6]
Track 3 accurately ripped (confidence 1) [17878A14]
Track 4 accurately ripped (confidence 1) [20C9DC4F]
Track 5 accurately ripped (confidence 1) [DB338C89]
Track 6 accurately ripped (confidence 1) [0F3902B2]
Track 7 accurately ripped (confidence 1) [831C039A]
Track 8 accurately ripped (confidence 1) [B4948A1B]
Track 9 accurately ripped (confidence 1) [8BF67FDE]
All tracks accurately ripped
End of status report
08:05
257
Нет комментариев. Ваш будет первым!