Поиск

(Jewish Music / Avant-Garde Jazz) Daniel Zamir - One - 2009 , FLAC (tracks+.cue), lossless

Треклист:
Daniel Zamir - One
Жанр: Jewish Music / Avant-Garde Jazz
Год выпуска : 2009
Лейбл: ?
Аудио кодек: FLAC
Тип рипа: tracks+.cue
Битрейт аудио: lossless
Продолжительность: 01:04:51
Рип: What CD


01. Part A: Opening (2:24)
02. Part B: A Bless (2:18)
03. Part C: Six (7:24)
04. Part D: Thirteen (13:57)
05. Thirty One (10:13)
06. Hatikva (15:43)
07. Shdemati (9:07)
08. Shdemati (Radio) (3:46)

 
EAC
Exact Audio Copy V0.99 prebeta 3 from 28. July 2007
EAC extraction logfile from 29. May 2009, 22:32
Daniel Zamir / One
Used drive : LITE-ON DVDRW SHW-160P6S Adapter: 5 ID: 0
Read mode : Secure
Utilize accurate stream : Yes
Defeat audio cache : Yes
Make use of C2 pointers : No
Read offset correction : 6
Overread into Lead-In and Lead-Out : No
Fill up missing offset samples with silence : Yes
Delete leading and trailing silent blocks : No
Null samples used in CRC calculations : No
Used interface : Native Win32 interface for Win NT & 2000
Gap handling : Appended to previous track
Used output format : User Defined Encoder
Selected bitrate : 768 kBit/s
Quality : High
Add ID3 tag : No
Command line compressor : C:\Program Files\Exact Audio Copy\FLAC\FLAC.EXE
Additional command line options : -6 -V -T "ARTIST=%a" -T "TITLE=%t" -T "ALBUM=%g" -T "DATE=%y" -T "TRACKNUMBER=%n" -T "GENRE=%m" -T "COMMENT=%e" %s -o %d
TOC of the extracted CD
Track | Start | Length | Start sector | End sector
---------------------------------------------------------
1 | 0:00.00 | 2:23.59 | 0 | 10783
2 | 2:23.59 | 2:18.13 | 10784 | 21146
3 | 4:41.72 | 7:23.38 | 21147 | 54409
4 | 12:05.35 | 13:56.44 | 54410 | 117153
5 | 26:02.04 | 10:13.26 | 117154 | 163154
6 | 36:15.30 | 15:42.64 | 163155 | 233868
7 | 51:58.19 | 9:07.37 | 233869 | 274930
8 | 61:05.56 | 3:45.68 | 274931 | 291873
Track 1
Filename L:\Lossless\#1 Israeli\D\Daniel Zamir\One\01. Part A- Opening.wav
Pre-gap length 0:00:02.00
Peak level 93.4 %
Track quality 99.9 %
Test CRC 0779E345
Copy CRC 0779E345
Track not present in AccurateRip database
Copy OK
Track 2
Filename L:\Lossless\#1 Israeli\D\Daniel Zamir\One\02. Part B- A Bless.wav
Pre-gap length 0:00:00.01
Peak level 95.0 %
Track quality 100.0 %
Test CRC 6F526A23
Copy CRC 6F526A23
Track not present in AccurateRip database
Copy OK
Track 3
Filename L:\Lossless\#1 Israeli\D\Daniel Zamir\One\03. Part C- Six.wav
Peak level 99.9 %
Track quality 100.0 %
Test CRC ACFECA6A
Copy CRC ACFECA6A
Track not present in AccurateRip database
Copy OK
Track 4
Filename L:\Lossless\#1 Israeli\D\Daniel Zamir\One\04. Part D- Thirteen.wav
Peak level 98.4 %
Track quality 100.0 %
Test CRC 6EFD5E2C
Copy CRC 6EFD5E2C
Track not present in AccurateRip database
Copy OK
Track 5
Filename L:\Lossless\#1 Israeli\D\Daniel Zamir\One\05. Thirty One.wav
Pre-gap length 0:00:03.61
Peak level 100.0 %
Track quality 99.9 %
Test CRC 0E0510C2
Copy CRC 0E0510C2
Track not present in AccurateRip database
Copy OK
Track 6
Filename L:\Lossless\#1 Israeli\D\Daniel Zamir\One\06. Hatikva.wav
Pre-gap length 0:00:03.38
Peak level 97.6 %
Track quality 100.0 %
Test CRC 4FA84433
Copy CRC 4FA84433
Track not present in AccurateRip database
Copy OK
Track 7
Filename L:\Lossless\#1 Israeli\D\Daniel Zamir\One\07. Shdemati.wav
Pre-gap length 0:00:03.23
Peak level 100.0 %
Track quality 100.0 %
Test CRC 2AEBE101
Copy CRC 2AEBE101
Track not present in AccurateRip database
Copy OK
Track 8
Filename L:\Lossless\#1 Israeli\D\Daniel Zamir\One\08. Shdemati(Radio).wav
Pre-gap length 0:00:20.67
Peak level 100.0 %
Track quality 100.0 %
Test CRC 64E834DC
Copy CRC 64E834DC
Track not present in AccurateRip database
Copy OK
None of the tracks are present in the AccurateRip database
No errors occurred
End of status report
 
CUE
REM DISCID 660F3308
REM COMMENT "ExactAudioCopy v0.99pb3"
PERFORMER "Daniel Zamir"
TITLE "One"
FILE "01. Part A- Opening.wav" WAVE
TRACK 01 AUDIO
TITLE "Part A: Opening"
PERFORMER "Daniel Zamir"
INDEX 01 00:00:00
TRACK 02 AUDIO
TITLE "Part B: A Bless"
PERFORMER "Daniel Zamir"
INDEX 00 02:23:58
FILE "02. Part B- A Bless.wav" WAVE
INDEX 01 00:00:00
FILE "03. Part C- Six.wav" WAVE
TRACK 03 AUDIO
TITLE "Part C: Six"
PERFORMER "Daniel Zamir"
INDEX 01 00:00:00
FILE "04. Part D- Thirteen.wav" WAVE
TRACK 04 AUDIO
TITLE "Part D: Thirteen"
PERFORMER "Daniel Zamir"
INDEX 01 00:00:00
TRACK 05 AUDIO
TITLE "Thirty One"
PERFORMER "Daniel Zamir"
INDEX 00 13:52:58
FILE "05. Thirty One.wav" WAVE
INDEX 01 00:00:00
TRACK 06 AUDIO
TITLE "Hatikva"
PERFORMER "Daniel Zamir"
INDEX 00 10:09:63
FILE "06. Hatikva.wav" WAVE
INDEX 01 00:00:00
TRACK 07 AUDIO
TITLE "Shdemati"
PERFORMER "Daniel Zamir"
INDEX 00 15:39:41
FILE "07. Shdemati.wav" WAVE
INDEX 01 00:00:00
TRACK 08 AUDIO
TITLE "Shdemati(Radio)"
PERFORMER "Daniel Zamir"
INDEX 00 08:46:45
FILE "08. Shdemati(Radio).wav" WAVE
INDEX 01 00:00:00
 
Пара спектров Аудишина

08:06
250
Нет комментариев. Ваш будет первым!