Поиск

(Modern Creative, Post-Bop, SplascH, Guitar Jazz) [CD] Gaetano Valli - Paludi - 1997, FLAC (tracks+.cue), lossless

(Modern Creative, Post-Bop, SplascH, Guitar Jazz) [CD] Gaetano Valli - Paludi - 1997, FLAC (tracks+.cue), lossless
Издатель (лейбл):
Треклист:
Gaetano Valli / Paludi
Жанр: Modern Creative, Post-Bop, SplascH, Guitar Jazz
Носитель: CD
Страна-производитель диска: Italy
Год издания: 1997
Издатель (лейбл): Splasc(h) Records
Номер по каталогу: CDH 601.2
Страна: Italy
Аудиокодек: FLAC (*.flac)
Тип рипа: tracks+.cue
Битрейт аудио: lossless
Продолжительность: 66:08
Источник (релизер): свой фирменный диск
Наличие сканов в содержимом раздачи:
Треклист:
1. Paludi 5:12
2. Auguri Tatiana 5:16
3. La Casa Gialla 5:22
4. Risveglio 6:47
5. Don 8:00
6. Stella By Starlight 2:09
7. Jayti 7:02
8. Dea 5:22
9. Ralph's Piano Waltz 3:25
10. Quasi Mai 6:31
11. Isa 5:03
12. 9 H 5:51
 
Лог создания рипа
Exact Audio Copy V1.0 beta 3 from 29. August 2011
EAC extraction logfile from 11. April 2014, 23:39
Gaetano Valli / Paludi
Used drive : PIONEER DVD-RW DVR-115D Adapter: 0 ID: 0
Read mode : Secure
Utilize accurate stream : Yes
Defeat audio cache : Yes
Make use of C2 pointers : No
Read offset correction : 48
Overread into Lead-In and Lead-Out : No
Fill up missing offset samples with silence : Yes
Delete leading and trailing silent blocks : No
Null samples used in CRC calculations : Yes
Used interface : Installed external ASPI interface
Gap handling : Appended to previous track
Used output format : User Defined Encoder
Selected bitrate : 896 kBit/s
Quality : High
Add ID3 tag : No
Command line compressor : C:\Program Files\Exact Audio Copy\FLAC\FLAC.EXE
Additional command line options : -6 -V -T "ARTIST=%artist%" -T "TITLE=%title%" -T "ALBUM=%albumtitle%" -T "DATE=%year%" -T "TRACKNUMBER=%tracknr%" -T "GENRE=%genre%" -T "COMMENT=%comment%" -T "BAND=%albuminterpret%" -T "COMPOSER=%composer%" %haslyrics%--tag-from-file=LYRICS="%lyricsfile%"%haslyrics% -T "DISCNUMBER=%cdnumber%" -T "TOTALDISCS=%totalcds%" -T "TOTALTRACKS=%numtracks%" %hascover%--picture="%coverfile%"%hascover% %source% -o %dest%
TOC of the extracted CD
Track | Start | Length | Start sector | End sector
---------------------------------------------------------
1 | 0:00.00 | 5:10.72 | 0 | 23321
2 | 5:10.72 | 5:16.45 | 23322 | 47066
3 | 10:27.42 | 5:22.10 | 47067 | 71226
4 | 15:49.52 | 6:47.58 | 71227 | 101809
5 | 22:37.35 | 8:00.37 | 101810 | 137846
6 | 30:37.72 | 2:09.65 | 137847 | 147586
7 | 32:47.62 | 7:02.15 | 147587 | 179251
8 | 39:50.02 | 5:22.28 | 179252 | 203429
9 | 45:12.30 | 3:25.40 | 203430 | 218844
10 | 48:37.70 | 6:31.05 | 218845 | 248174
11 | 55:09.00 | 5:08.20 | 248175 | 271294
12 | 60:17.20 | 5:51.30 | 271295 | 297649
Track 1
Filename D:\zzz\01 - Paludi.wav
Pre-gap length 0:00:02.00
Peak level 95.4 %
Extraction speed 5.0 X
Track quality 100.0 %
Test CRC 38EE8C10
Copy CRC 38EE8C10
Accurately ripped (confidence 1) [2F316541] (AR v1)
Copy OK
Track 2
Filename D:\zzz\02 - Auguri Tatiana.wav
Peak level 90.4 %
Extraction speed 5.5 X
Track quality 100.0 %
Test CRC 3FA27612
Copy CRC 3FA27612
Accurately ripped (confidence 1) [8C90B25F] (AR v1)
Copy OK
Track 3
Filename D:\zzz\03 - La Casa Gialla.wav
Peak level 99.9 %
Extraction speed 6.0 X
Track quality 100.0 %
Test CRC 41263DB1
Copy CRC 41263DB1
Accurately ripped (confidence 1) [6250AC34] (AR v1)
Copy OK
Track 4
Filename D:\zzz\04 - Risveglio.wav
Peak level 99.9 %
Extraction speed 6.7 X
Track quality 100.0 %
Test CRC D83203FA
Copy CRC D83203FA
Accurately ripped (confidence 1) [4B1F6F20] (AR v1)
Copy OK
Track 5
Filename D:\zzz\05 - Don.wav
Peak level 99.9 %
Extraction speed 7.3 X
Track quality 100.0 %
Test CRC F97A23F6
Copy CRC F97A23F6
Accurately ripped (confidence 1) [4894F7C3] (AR v1)
Copy OK
Track 6
Filename D:\zzz\06 - Stella By Starlight.wav
Peak level 89.1 %
Extraction speed 6.4 X
Track quality 100.0 %
Test CRC A416FFCE
Copy CRC A416FFCE
Accurately ripped (confidence 1) [08B16CF5] (AR v1)
Copy OK
Track 7
Filename D:\zzz\07 - Jayti.wav
Peak level 99.9 %
Extraction speed 7.9 X
Track quality 100.0 %
Test CRC 731ABD34
Copy CRC 731ABD34
Accurately ripped (confidence 1) [2B8EE5A9] (AR v1)
Copy OK
Track 8
Filename D:\zzz\08 - Dea.wav
Peak level 99.9 %
Extraction speed 7.3 X
Track quality 99.9 %
Test CRC 423301AB
Copy CRC 423301AB
Accurately ripped (confidence 1) [671BAE1D] (AR v1)
Copy OK
Track 9
Filename D:\zzz\09 - Ralph's Piano Waltz.wav
Peak level 92.7 %
Extraction speed 6.9 X
Track quality 99.9 %
Test CRC 4563EA3E
Copy CRC 4563EA3E
Accurately ripped (confidence 1) [49267039] (AR v1)
Copy OK
Track 10
Filename D:\zzz\10 - Quasi Mai.wav
Peak level 99.9 %
Extraction speed 8.1 X
Track quality 99.9 %
Test CRC 22066AA0
Copy CRC 22066AA0
Accurately ripped (confidence 1) [A8EAC59C] (AR v1)
Copy OK
Track 11
Filename D:\zzz\11 - Isa.wav
Peak level 96.3 %
Extraction speed 8.8 X
Track quality 100.0 %
Test CRC 9D8CA277
Copy CRC 9D8CA277
Accurately ripped (confidence 1) [BCB1518B] (AR v1)
Copy OK
Track 12
Filename D:\zzz\12 - 9 H.wav
Peak level 99.9 %
Extraction speed 9.2 X
Track quality 100.0 %
Test CRC 51F0E9F5
Copy CRC 51F0E9F5
Accurately ripped (confidence 1) [E15014E3] (AR v1)
Copy OK
All tracks accurately ripped
No errors occurred
End of status report
==== Log checksum CF4AD9F75D1E806CE2FA7C571193C91C579034552725233E556888BC0D028F6D ====
 
Содержание индексной карты (.CUE)
REM GENRE Post-Bop
REM DATE 1997
REM DISCID B60F800C
REM COMMENT "ExactAudioCopy v1.0b3"
PERFORMER "Gaetano Valli"
TITLE "Paludi"
FILE "01 - Paludi.wav" WAVE
TRACK 01 AUDIO
TITLE "Paludi"
PERFORMER "Gaetano Valli"
INDEX 01 00:00:00
FILE "02 - Auguri Tatiana.wav" WAVE
TRACK 02 AUDIO
TITLE "Auguri Tatiana"
PERFORMER "Gaetano Valli"
INDEX 01 00:00:00
FILE "03 - La Casa Gialla.wav" WAVE
TRACK 03 AUDIO
TITLE "La Casa Gialla"
PERFORMER "Gaetano Valli"
INDEX 01 00:00:00
FILE "04 - Risveglio.wav" WAVE
TRACK 04 AUDIO
TITLE "Risveglio"
PERFORMER "Gaetano Valli"
INDEX 01 00:00:00
FILE "05 - Don.wav" WAVE
TRACK 05 AUDIO
TITLE "Don"
PERFORMER "Gaetano Valli"
INDEX 01 00:00:00
FILE "06 - Stella By Starlight.wav" WAVE
TRACK 06 AUDIO
TITLE "Stella By Starlight"
PERFORMER "Gaetano Valli"
INDEX 01 00:00:00
FILE "07 - Jayti.wav" WAVE
TRACK 07 AUDIO
TITLE "Jayti"
PERFORMER "Gaetano Valli"
INDEX 01 00:00:00
FILE "08 - Dea.wav" WAVE
TRACK 08 AUDIO
TITLE "Dea"
PERFORMER "Gaetano Valli"
INDEX 01 00:00:00
FILE "09 - Ralph's Piano Waltz.wav" WAVE
TRACK 09 AUDIO
TITLE "Ralph's Piano Waltz"
PERFORMER "Gaetano Valli"
INDEX 01 00:00:00
FILE "10 - Quasi Mai.wav" WAVE
TRACK 10 AUDIO
TITLE "Quasi Mai"
PERFORMER "Gaetano Valli"
INDEX 01 00:00:00
FILE "11 - Isa.wav" WAVE
TRACK 11 AUDIO
TITLE "Isa"
PERFORMER "Gaetano Valli"
INDEX 01 00:00:00
FILE "12 - 9 H.wav" WAVE
TRACK 12 AUDIO
TITLE "9 H"
PERFORMER "Gaetano Valli"
INDEX 01 00:00:00
 
Лог проверки качества
d:\>d:\aucdtect -d/-m0 d:\zzz\*.wav
auCDtect: CD records authenticity detector, version 0.8.2
Copyright (c) 2004 Oleg Berngardt. All rights reserved.
Copyright (c) 2004 Alexander Djourik. All rights reserved.
------------------------------------------------------------
Processing file: [01. Paludi.wav]
------------------------------------------------------------
This track looks like CDDA with probability 100%
------------------------------------------------------------
Processing file: [02. Auguri Tatiana.wav]
------------------------------------------------------------
This track looks like CDDA with probability 100%
------------------------------------------------------------
Processing file: [03. La Casa Gialla.wav]
------------------------------------------------------------
This track looks like CDDA with probability 100%
------------------------------------------------------------
Processing file: [04. Risveglio.wav]
------------------------------------------------------------
This track looks like CDDA with probability 100%
------------------------------------------------------------
Processing file: [05. Don.wav]
------------------------------------------------------------
This track looks like CDDA with probability 100%
------------------------------------------------------------
Processing file: [06. Stella By Starlight.wav]
------------------------------------------------------------
This track looks like CDDA with probability 100%
------------------------------------------------------------
Processing file: [07. Jayti.wav]
------------------------------------------------------------
This track looks like CDDA with probability 100%
------------------------------------------------------------
Processing file: [08. Dea.wav]
------------------------------------------------------------
This track looks like CDDA with probability 99%
------------------------------------------------------------
Processing file: [09. Ralph's Piano Waltz.wav]
------------------------------------------------------------
This track looks like CDDA with probability 100%
------------------------------------------------------------
Processing file: [10. Quasi Mai.wav]
------------------------------------------------------------
This track looks like CDDA with probability 100%
------------------------------------------------------------
Processing file: [11. Isa.wav]
------------------------------------------------------------
This track looks like CDDA with probability 100%
------------------------------------------------------------
Processing file: [12. 9 H.wav]
------------------------------------------------------------
This track looks like CDDA with probability 100%
------------------------------------------------------------
Final Conclusion:
------------------------------------------------------------
These tracks looks like CDDA with probability 100%
Доп. информация:
 
Album Info & AMG Review
(G. Valli) - 1,3,4,5,7,10,11,12
(G. Valli - B. Cesselli) - 2
(V. Young - N. Washington) - 6
(B. Cesselli) - 8
(J. Abercrombie) - 9
Recorded and mixed at B&B Production via Cento, 298/1 Vigarano Mainarda (FE) in April-May 1996
Registrazione e missagi: Alberto Bonazzi e Roberta Montanari
Masterizzato da Stefano Amerio presso: MIDI & DIGITAL STUDIO - Udine
Cover lay-out: Roberto Duse
Photos: Stefano De Carne
Produzione artistica: Gaetano Valli
Produzione esecutiva: Roberto Montanari
Gaetano Valli is a guitarist, composer, and bandleader that comes out of the Billy Bauer and Wes Montgomery schools of jazz guitar. He is always smooth and articulate, and compositionally balanced, especially in group settings. This set showcases Valli's compositions in groups everything from duets to quintets with a rotating group of musicians. His use of a semi-acoustic guitar creates a resonance and warmth in his playing that many don't possess, especially since he plays it like he would a Gibson Byrdland. From the opener, "Paludi," his swinging, arpeggiated harmonics are in evidence: they are rooted in the blues and gypsy swing, and they play in constant harmony with the horns and keyboards rather than contrapuntally. The music is very smooth yet interesting because of its intricate changes and dimensional sonorities, which offer a different read on whoever is soling at any given moment. He takes things outside in the off minor, bebop science fiction tune "Auguri Tatiana," but as the staccato notes come flying off the neck, just as a level of intensity happens where something unexpected may happen, he brings it back into then familiar blues/tango/film noirish shuffle that so many tunes here have. And that is the difficulty in listening to the entire recording, one tune begins to bleed into another after awhile, making it very difficult -- even in trio and quartet settings to distinguish one track from the next. The playing is awesome, perhaps too much so for its own good. Next time out they should go for less safety, more rough edges.
 
Состав
Gaetano Valli: semi-acoustic guitar (1,2,3,4,5,10,12), guitar (6), acoustic guitar (7,9,11), electric guitar (8)
Bruno Cesselli: piano (1,2,4,5,7,8,10,11), electronic organ (12)
Francesco Bearzatti: soprano sax (1), tenor sax (5)
Giorgio Zanier: drums (1,2,3,4,5,7,8,10,12)
Flavio Zanon: fretless bass (1,7)
Marco Tamburini: trumpet (2,3,5,8,10)
Riccardo Fioravanti: bass (2,3,4,5,8,9,10,11,12)
U.T. Ghandi: drums & percussion (11)
По всем вопросам пишите личное сообщение пользователю M0p94ok.
11:08
271
Нет комментариев. Ваш будет первым!