Поиск

(Modern Creative, SplascH, Avant-Garde Jazz) [CD] (Carlo Actis Dato) Actis' Band - Son Para El Che - 1999, FLAC (tracks+.cue), lossless

(Modern Creative, SplascH, Avant-Garde Jazz) [CD] (Carlo Actis Dato) Actis' Band - Son Para El Che - 1999, FLAC (tracks+.cue), lossless
Издатель (лейбл):
Треклист:
Actis' Band / Son Para El Che
Жанр: Modern Creative, SplascH, Avant-Garde Jazz
Носитель: CD
Страна-производитель диска: Italy
Год издания: 1999
Издатель (лейбл): Splasc(h) Records
Номер по каталогу: CDH 675.2
Страна: Italy
Аудиокодек: FLAC (*.flac)
Тип рипа: tracks+.cue
Битрейт аудио: lossless
Продолжительность: 67:05
Источник (релизер): свой фирменный диск
Наличие сканов в содержимом раздачи:
Треклист:
1. Nefertari 7:17
2. Kumo 5:40
3. Sole Di Napoli 3:55
4. La Porta Della Luna 7:51
5. Puzzle 5:26
6. Tatu 11:53
7. Dead Chicken For Breakfast 5:04
8. Lazymambo 3:52
9. Intifada 5:19
10. Tzukulikata 4:41
11. Son Para El Che 5:58
12. Last Blow 0:08
 
Лог создания рипа
Exact Audio Copy V1.0 beta 3 from 29. August 2011
EAC extraction logfile from 13. April 2014, 12:55
Actis' Band / Son Para El Che
Used drive : PIONEER DVD-RW DVR-115D Adapter: 0 ID: 0
Read mode : Secure
Utilize accurate stream : Yes
Defeat audio cache : Yes
Make use of C2 pointers : No
Read offset correction : 48
Overread into Lead-In and Lead-Out : No
Fill up missing offset samples with silence : Yes
Delete leading and trailing silent blocks : No
Null samples used in CRC calculations : Yes
Used interface : Installed external ASPI interface
Gap handling : Appended to previous track
Used output format : User Defined Encoder
Selected bitrate : 896 kBit/s
Quality : High
Add ID3 tag : No
Command line compressor : C:\Program Files\Exact Audio Copy\FLAC\FLAC.EXE
Additional command line options : -6 -V -T "ARTIST=%artist%" -T "TITLE=%title%" -T "ALBUM=%albumtitle%" -T "DATE=%year%" -T "TRACKNUMBER=%tracknr%" -T "GENRE=%genre%" -T "COMMENT=%comment%" -T "BAND=%albuminterpret%" -T "COMPOSER=%composer%" %haslyrics%--tag-from-file=LYRICS="%lyricsfile%"%haslyrics% -T "DISCNUMBER=%cdnumber%" -T "TOTALDISCS=%totalcds%" -T "TOTALTRACKS=%numtracks%" %hascover%--picture="%coverfile%"%hascover% %source% -o %dest%
TOC of the extracted CD
Track | Start | Length | Start sector | End sector
---------------------------------------------------------
1 | 0:00.00 | 7:17.19 | 0 | 32793
2 | 7:17.19 | 5:40.06 | 32794 | 58299
3 | 12:57.25 | 3:55.08 | 58300 | 75932
4 | 16:52.33 | 7:51.08 | 75933 | 111265
5 | 24:43.41 | 5:25.57 | 111266 | 135697
6 | 30:09.23 | 11:53.18 | 135698 | 189190
7 | 42:02.41 | 5:03.65 | 189191 | 211980
8 | 47:06.31 | 3:51.67 | 211981 | 229372
9 | 50:58.23 | 5:18.71 | 229373 | 253293
10 | 56:17.19 | 4:41.25 | 253294 | 274393
11 | 60:58.44 | 5:58.18 | 274394 | 301261
12 | 66:56.62 | 0:08.61 | 301262 | 301922
Track 1
Filename D:\zzz\01 - Nefertari.wav
Pre-gap length 0:00:02.00
Peak level 97.7 %
Extraction speed 4.6 X
Track quality 99.9 %
Test CRC 2A119E10
Copy CRC 2A119E10
Accurately ripped (confidence 1) [A2AD01D8] (AR v1)
Copy OK
Track 2
Filename D:\zzz\02 - Kumo.wav
Pre-gap length 0:00:03.35
Peak level 97.7 %
Extraction speed 5.5 X
Track quality 100.0 %
Test CRC 19216D48
Copy CRC 19216D48
Accurately ripped (confidence 1) [31C98730] (AR v1)
Copy OK
Track 3
Filename D:\zzz\03 - Sole Di Napoli.wav
Pre-gap length 0:00:03.35
Peak level 97.7 %
Extraction speed 5.6 X
Track quality 100.0 %
Test CRC 2D1D5E25
Copy CRC 2D1D5E25
Accurately ripped (confidence 1) [8CE9289F] (AR v1)
Copy OK
Track 4
Filename D:\zzz\04 - La Porta Della Luna.wav
Pre-gap length 0:00:03.35
Peak level 97.7 %
Extraction speed 6.2 X
Track quality 99.9 %
Test CRC EC271486
Copy CRC EC271486
Accurately ripped (confidence 1) [F7443E3B] (AR v1)
Copy OK
Track 5
Filename D:\zzz\05 - Puzzle.wav
Pre-gap length 0:00:03.35
Peak level 97.7 %
Extraction speed 6.9 X
Track quality 100.0 %
Test CRC 48A2EB6C
Copy CRC 48A2EB6C
Accurately ripped (confidence 1) [E61769C8] (AR v1)
Copy OK
Track 6
Filename D:\zzz\06 - Tatu.wav
Pre-gap length 0:00:03.35
Peak level 97.7 %
Extraction speed 7.8 X
Track quality 100.0 %
Test CRC 65C7294D
Copy CRC 65C7294D
Accurately ripped (confidence 1) [6EFB01F8] (AR v1)
Copy OK
Track 7
Filename D:\zzz\07 - Dead Chicken For Breakfast.wav
Pre-gap length 0:00:03.35
Peak level 97.7 %
Extraction speed 7.7 X
Track quality 100.0 %
Test CRC 0F47EFF8
Copy CRC 0F47EFF8
Accurately ripped (confidence 1) [FED3B908] (AR v1)
Copy OK
Track 8
Filename D:\zzz\08 - Lazymambo.wav
Pre-gap length 0:00:03.35
Peak level 97.7 %
Extraction speed 7.8 X
Track quality 100.0 %
Test CRC 13EA3FEA
Copy CRC 13EA3FEA
Accurately ripped (confidence 1) [5E5DDA82] (AR v1)
Copy OK
Track 9
Filename D:\zzz\09 - Intifada.wav
Pre-gap length 0:00:03.35
Peak level 97.7 %
Extraction speed 8.3 X
Track quality 100.0 %
Test CRC A8BB80A7
Copy CRC A8BB80A7
Accurately ripped (confidence 1) [BBFCB22C] (AR v1)
Copy OK
Track 10
Filename D:\zzz\10 - Tzukulikata.wav
Pre-gap length 0:00:03.35
Peak level 97.7 %
Extraction speed 8.4 X
Track quality 100.0 %
Test CRC 2EC6732C
Copy CRC 2EC6732C
Accurately ripped (confidence 1) [FC3A256A] (AR v1)
Copy OK
Track 11
Filename D:\zzz\11 - Son Para El Che.wav
Pre-gap length 0:00:03.35
Peak level 97.7 %
Extraction speed 8.3 X
Track quality 99.9 %
Test CRC 4BBCFACC
Copy CRC 4BBCFACC
Accurately ripped (confidence 1) [34D3EAAF] (AR v1)
Copy OK
Track 12
Filename D:\zzz\12 - Last Blow.wav
Pre-gap length 0:00:03.35
Peak level 97.7 %
Extraction speed 1.9 X
Track quality 100.0 %
Test CRC 167547E9
Copy CRC 167547E9
Accurately ripped (confidence 1) [15CD4B3C] (AR v1)
Copy OK
All tracks accurately ripped
No errors occurred
End of status report
==== Log checksum 1898738ADD57644CF6787AB266E25BD3CE53510AB06B8B3312CBDDB9CAB2613A ====
 
Содержание индексной карты (.CUE)
REM GENRE "Modern Creative Jazz"
REM DATE 1999
REM DISCID A80FB90C
REM COMMENT "ExactAudioCopy v1.0b3"
PERFORMER "Actis' Band"
TITLE "Son Para El Che"
FILE "01 - Nefertari.wav" WAVE
TRACK 01 AUDIO
TITLE "Nefertari"
PERFORMER "Actis' Band"
INDEX 01 00:00:00
TRACK 02 AUDIO
TITLE "Kumo"
PERFORMER "Actis' Band"
INDEX 00 07:13:59
FILE "02 - Kumo.wav" WAVE
INDEX 01 00:00:00
TRACK 03 AUDIO
TITLE "Sole Di Napoli"
PERFORMER "Actis' Band"
INDEX 00 05:36:46
FILE "03 - Sole Di Napoli.wav" WAVE
INDEX 01 00:00:00
TRACK 04 AUDIO
TITLE "La Porta Della Luna"
PERFORMER "Actis' Band"
INDEX 00 03:51:48
FILE "04 - La Porta Della Luna.wav" WAVE
INDEX 01 00:00:00
TRACK 05 AUDIO
TITLE "Puzzle"
PERFORMER "Actis' Band"
INDEX 00 07:47:48
FILE "05 - Puzzle.wav" WAVE
INDEX 01 00:00:00
TRACK 06 AUDIO
TITLE "Tatu"
PERFORMER "Actis' Band"
INDEX 00 05:22:22
FILE "06 - Tatu.wav" WAVE
INDEX 01 00:00:00
TRACK 07 AUDIO
TITLE "Dead Chicken For Breakfast"
PERFORMER "Actis' Band"
INDEX 00 11:49:58
FILE "07 - Dead Chicken For Breakfast.wav" WAVE
INDEX 01 00:00:00
TRACK 08 AUDIO
TITLE "Lazymambo"
PERFORMER "Actis' Band"
INDEX 00 05:00:30
FILE "08 - Lazymambo.wav" WAVE
INDEX 01 00:00:00
TRACK 09 AUDIO
TITLE "Intifada"
PERFORMER "Actis' Band"
INDEX 00 03:48:32
FILE "09 - Intifada.wav" WAVE
INDEX 01 00:00:00
TRACK 10 AUDIO
TITLE "Tzukulikata"
PERFORMER "Actis' Band"
INDEX 00 05:15:36
FILE "10 - Tzukulikata.wav" WAVE
INDEX 01 00:00:00
TRACK 11 AUDIO
TITLE "Son Para El Che"
PERFORMER "Actis' Band"
INDEX 00 04:37:65
FILE "11 - Son Para El Che.wav" WAVE
INDEX 01 00:00:00
TRACK 12 AUDIO
TITLE "Last Blow"
PERFORMER "Actis' Band"
INDEX 00 05:54:58
FILE "12 - Last Blow.wav" WAVE
INDEX 01 00:00:00
 
Лог проверки качества
d:\>d:\aucdtect -d/-m0 d:\zzz\*.wav
auCDtect: CD records authenticity detector, version 0.8.2
Copyright (c) 2004 Oleg Berngardt. All rights reserved.
Copyright (c) 2004 Alexander Djourik. All rights reserved.
------------------------------------------------------------
Processing file: [01. Nefertari.wav]
------------------------------------------------------------
This track looks like CDDA with probability 100%
------------------------------------------------------------
Processing file: [02. Kumo.wav]
------------------------------------------------------------
This track looks like CDDA with probability 100%
------------------------------------------------------------
Processing file: [03. Sole Di Napoli.wav]
------------------------------------------------------------
This track looks like CDDA with probability 99%
------------------------------------------------------------
Processing file: [04. La Porta Della Luna.wav]
------------------------------------------------------------
This track looks like CDDA with probability 99%
------------------------------------------------------------
Processing file: [05. Puzzle.wav]
------------------------------------------------------------
This track looks like CDDA with probability 99%
------------------------------------------------------------
Processing file: [06. Tatu.wav]
------------------------------------------------------------
This track looks like CDDA with probability 100%
------------------------------------------------------------
Processing file: [07. Dead Chicken For Breakfast.wav]
------------------------------------------------------------
This track looks like CDDA with probability 100%
------------------------------------------------------------
Processing file: [08. Lazymambo.wav]
------------------------------------------------------------
This track looks like CDDA with probability 99%
------------------------------------------------------------
Processing file: [09. Intifada.wav]
------------------------------------------------------------
This track looks like CDDA with probability 100%
------------------------------------------------------------
Processing file: [10. Tzukulikata.wav]
------------------------------------------------------------
This track looks like CDDA with probability 100%
------------------------------------------------------------
Processing file: [11. Son Para El Che.wav]
------------------------------------------------------------
This track looks like CDDA with probability 100%
------------------------------------------------------------
Processing file: [12. Last Blow.wav]
------------------------------------------------------------
This track looks like CDDA with probability 100%
------------------------------------------------------------
Final Conclusion:
------------------------------------------------------------
These tracks looks like CDDA with probability 100%
Доп. информация:
 
Album Info & AMG Review
All compositions by C. Actis Dato
Recorded at Colori Studio, Lessolo (To), Italy, on October 7 & 8, 1997
Sound engineer: Elena Bazzano
The voice on track 10 is speaking in Japanese
Cover photo: C. Actis Dato, Gallipoli, Italy
Inside photo: Antonio Fontana
Liner notes: Davide Ielmini - "Is this still the Modern Age?"
English texts: Pete Kercher
Produced by Splasc(h) Records, a division of Senz'h Scrl, via Roma, 11 21051 Arcisate (Italy)
"Music for dreamers, everywhere and anyway"
Wild man Italian saxophonist Carlos Actis Dato is known for his comic antics with the Italian Instabile Orchestra and as leader of his own groups. This recording features him in an unusual setting -- two saxophones, electric guitar, bass and drums -- and Dato takes full advantage, with his best set to date. Combining avant garde jazz solos with Eastern European melodies and an upbeat funky rock beat, the group maneuvers through an eclectic collection of originals, tearing the hide of the ball and covering wide ground. The rhythm section of guitarist Antonio Fontana, bassist Federico Marchesano and drummer Dario Bruna lays down a solid danceable beat, and the saxophones take full advantage. Dato is heard on bass clarinet and tenor and baritone saxes, joined by Massimo Rossi on soprano and alto saxophones. The results thoroughly invigorate, and if excesses occasionally emerge, they do not seem out of place.
 
Состав
Carlo Actis Dato: tenor & baritone saxes, bass clarinet
Massimo Rossi: alto & soprano saxes
Antonio Fontana: guitar
Federico Marchesano: acoustic and electric bass
Dario Bruna: drums
По всем вопросам пишите личное сообщение пользователю M0p94ok.
11:08
268
Нет комментариев. Ваш будет первым!