Поиск

(Modern Creative, Experimental Big Band, Post-Bop) [CD] UMO Jazz Orchestra - UMO Jazz Orchestra - 1997, FLAC (tracks+.cue), lossless

(Modern Creative, Experimental Big Band, Post-Bop) [CD] UMO Jazz Orchestra - UMO Jazz Orchestra - 1997, FLAC (tracks+.cue), lossless
Треклист:
UMO Jazz Orchestra / UMO Jazz Orchestra
Жанр: Modern Creative, Experimental Big Band, Post-Bop
Носитель: CD
Страна-производитель диска: US
Год издания: 1997
Издатель (лейбл): Naxos Jazz
Номер по каталогу: 86010-2
Страна: Finland
Аудиокодек: FLAC (*.flac)
Тип рипа: tracks+.cue
Битрейт аудио: lossless
Продолжительность: 68:37
Источник (релизер): свой фирменный диск
Наличие сканов в содержимом раздачи:
Треклист:
1. Frozen Petals 5:48
2. All Blues 5:02
3. Aldebaran 9:33
4. What Is This? 7:48
5. Bermuda 5:30
6. Blue In Distance 4:49
7. Cuckoo's Nest 7:27
8. Equinox 6:29
9. Life Is A Cobra 7:09
10. Tarkovski 8:40
 
Лог создания рипа
Exact Audio Copy V1.0 beta 3 from 29. August 2011
EAC extraction logfile from 10. April 2014, 23:51
UMO Jazz Orchestra / UMO Jazz Orchestra
Used drive : PIONEER DVD-RW DVR-115D Adapter: 0 ID: 0
Read mode : Secure
Utilize accurate stream : Yes
Defeat audio cache : Yes
Make use of C2 pointers : No
Read offset correction : 48
Overread into Lead-In and Lead-Out : No
Fill up missing offset samples with silence : Yes
Delete leading and trailing silent blocks : No
Null samples used in CRC calculations : Yes
Used interface : Installed external ASPI interface
Gap handling : Appended to previous track
Used output format : User Defined Encoder
Selected bitrate : 896 kBit/s
Quality : High
Add ID3 tag : No
Command line compressor : C:\Program Files\Exact Audio Copy\FLAC\FLAC.EXE
Additional command line options : -6 -V -T "ARTIST=%artist%" -T "TITLE=%title%" -T "ALBUM=%albumtitle%" -T "DATE=%year%" -T "TRACKNUMBER=%tracknr%" -T "GENRE=%genre%" -T "COMMENT=%comment%" -T "BAND=%albuminterpret%" -T "COMPOSER=%composer%" %haslyrics%--tag-from-file=LYRICS="%lyricsfile%"%haslyrics% -T "DISCNUMBER=%cdnumber%" -T "TOTALDISCS=%totalcds%" -T "TOTALTRACKS=%numtracks%" %hascover%--picture="%coverfile%"%hascover% %source% -o %dest%
TOC of the extracted CD
Track | Start | Length | Start sector | End sector
---------------------------------------------------------
1 | 0:00.00 | 5:51.22 | 0 | 26346
2 | 5:51.22 | 5:04.68 | 26347 | 49214
3 | 10:56.15 | 9:35.22 | 49215 | 92361
4 | 20:31.37 | 7:49.63 | 92362 | 127599
5 | 28:21.25 | 5:32.30 | 127600 | 152529
6 | 33:53.55 | 4:50.50 | 152530 | 174329
7 | 38:44.30 | 7:30.22 | 174330 | 208101
8 | 46:14.52 | 6:31.45 | 208102 | 237471
9 | 52:46.22 | 7:11.23 | 237472 | 269819
10 | 59:57.45 | 8:40.05 | 269820 | 308824
Track 1
Filename D:\zzz\01 - Frozen Petals.wav
Pre-gap length 0:00:02.00
Peak level 100.0 %
Extraction speed 4.8 X
Track quality 100.0 %
Test CRC 34E808EF
Copy CRC 34E808EF
Accurately ripped (confidence 6) [66C15B43] (AR v2)
Copy OK
Track 2
Filename D:\zzz\02 - All Blues.wav
Pre-gap length 0:00:03.28
Peak level 100.0 %
Extraction speed 5.4 X
Track quality 100.0 %
Test CRC 9E4367FE
Copy CRC 9E4367FE
Accurately ripped (confidence 6) [925114F6] (AR v2)
Copy OK
Track 3
Filename D:\zzz\03 - Aldebaran.wav
Pre-gap length 0:00:02.53
Peak level 100.0 %
Extraction speed 6.3 X
Track quality 100.0 %
Test CRC FE76F761
Copy CRC FE76F761
Accurately ripped (confidence 7) [D38CDD8C] (AR v2)
Copy OK
Track 4
Filename D:\zzz\04 - What is This.wav
Pre-gap length 0:00:02.37
Peak level 100.0 %
Extraction speed 7.0 X
Track quality 100.0 %
Test CRC B313D2B7
Copy CRC B313D2B7
Accurately ripped (confidence 7) [E92C8493] (AR v2)
Copy OK
Track 5
Filename D:\zzz\05 - Bermuda.wav
Pre-gap length 0:00:01.60
Peak level 100.0 %
Extraction speed 7.2 X
Track quality 100.0 %
Test CRC 113948D3
Copy CRC 113948D3
Accurately ripped (confidence 7) [842C002B] (AR v2)
Copy OK
Track 6
Filename D:\zzz\06 - Blue In Distance.wav
Pre-gap length 0:00:02.58
Peak level 85.9 %
Extraction speed 7.4 X
Track quality 100.0 %
Test CRC 76B91709
Copy CRC 76B91709
Accurately ripped (confidence 6) [3C970F81] (AR v2)
Copy OK
Track 7
Filename D:\zzz\07 - Cuckoo's Nest.wav
Pre-gap length 0:00:01.13
Peak level 100.0 %
Extraction speed 8.1 X
Track quality 100.0 %
Test CRC B10EE8AB
Copy CRC B10EE8AB
Accurately ripped (confidence 6) [16F5AB15] (AR v2)
Copy OK
Track 8
Filename D:\zzz\08 - Equinox.wav
Pre-gap length 0:00:02.62
Peak level 100.0 %
Extraction speed 8.5 X
Track quality 100.0 %
Test CRC 7D0ECFC0
Copy CRC 7D0ECFC0
Accurately ripped (confidence 7) [D7FB1B2F] (AR v2)
Copy OK
Track 9
Filename D:\zzz\09 - Life Is A Cobra.wav
Pre-gap length 0:00:02.30
Peak level 100.0 %
Extraction speed 8.9 X
Track quality 100.0 %
Test CRC F8DE30F2
Copy CRC F8DE30F2
Accurately ripped (confidence 6) [A47168F0] (AR v2)
Copy OK
Track 10
Filename D:\zzz\10 - Tarkovski.wav
Pre-gap length 0:00:02.58
Peak level 100.0 %
Extraction speed 9.3 X
Track quality 100.0 %
Test CRC 00877A7E
Copy CRC 00877A7E
Accurately ripped (confidence 6) [30729B21] (AR v2)
Copy OK
All tracks accurately ripped
No errors occurred
End of status report
==== Log checksum EF89AAA8A3FD5A6581DD50F2AD52E5344B95D95A78C5B188F031B651A36097E9 ====
 
Содержание индексной карты (.CUE)
REM GENRE "Big Band"
REM DATE 1997
REM DISCID 8D10150A
REM COMMENT "ExactAudioCopy v1.0b3"
PERFORMER "UMO Jazz Orchestra"
TITLE "UMO Jazz Orchestra"
FILE "01 - Frozen Petals.wav" WAVE
TRACK 01 AUDIO
TITLE "Frozen Petals"
PERFORMER "UMO Jazz Orchestra"
INDEX 01 00:00:00
TRACK 02 AUDIO
TITLE "All Blues"
PERFORMER "UMO Jazz Orchestra"
INDEX 00 05:47:69
FILE "02 - All Blues.wav" WAVE
INDEX 01 00:00:00
TRACK 03 AUDIO
TITLE "Aldebaran"
PERFORMER "UMO Jazz Orchestra"
INDEX 00 05:02:15
FILE "03 - Aldebaran.wav" WAVE
INDEX 01 00:00:00
TRACK 04 AUDIO
TITLE "What is This?"
PERFORMER "UMO Jazz Orchestra"
INDEX 00 09:32:60
FILE "04 - What is This.wav" WAVE
INDEX 01 00:00:00
TRACK 05 AUDIO
TITLE "Bermuda"
PERFORMER "UMO Jazz Orchestra"
INDEX 00 07:48:03
FILE "05 - Bermuda.wav" WAVE
INDEX 01 00:00:00
TRACK 06 AUDIO
TITLE "Blue In Distance"
PERFORMER "UMO Jazz Orchestra"
INDEX 00 05:29:47
FILE "06 - Blue In Distance.wav" WAVE
INDEX 01 00:00:00
TRACK 07 AUDIO
TITLE "Cuckoo's Nest"
PERFORMER "UMO Jazz Orchestra"
INDEX 00 04:49:37
FILE "07 - Cuckoo's Nest.wav" WAVE
INDEX 01 00:00:00
TRACK 08 AUDIO
TITLE "Equinox"
PERFORMER "UMO Jazz Orchestra"
INDEX 00 07:27:35
FILE "08 - Equinox.wav" WAVE
INDEX 01 00:00:00
TRACK 09 AUDIO
TITLE "Life Is A Cobra"
PERFORMER "UMO Jazz Orchestra"
INDEX 00 06:29:15
FILE "09 - Life Is A Cobra.wav" WAVE
INDEX 01 00:00:00
TRACK 10 AUDIO
TITLE "Tarkovski"
PERFORMER "UMO Jazz Orchestra"
INDEX 00 07:08:40
FILE "10 - Tarkovski.wav" WAVE
INDEX 01 00:00:00
 
Лог проверки качества
d:\>d:\aucdtect -d/-m0 d:\zzz\*.wav
auCDtect: CD records authenticity detector, version 0.8.2
Copyright (c) 2004 Oleg Berngardt. All rights reserved.
Copyright (c) 2004 Alexander Djourik. All rights reserved.
------------------------------------------------------------
Processing file: [01. Frozen Petals.wav]
------------------------------------------------------------
This track looks like CDDA with probability 99%
------------------------------------------------------------
Processing file: [02. All Blues.wav]
------------------------------------------------------------
This track looks like CDDA with probability 100%
------------------------------------------------------------
Processing file: [03. Aldebaran.wav]
------------------------------------------------------------
This track looks like CDDA with probability 100%
------------------------------------------------------------
Processing file: [04. What is This.wav]
------------------------------------------------------------
This track looks like CDDA with probability 100%
------------------------------------------------------------
Processing file: [05. Bermuda.wav]
------------------------------------------------------------
This track looks like CDDA with probability 100%
------------------------------------------------------------
Processing file: [06. Blue In Distance.wav]
------------------------------------------------------------
This track looks like CDDA with probability 100%
------------------------------------------------------------
Processing file: [07. Cuckoo's Nest.wav]
------------------------------------------------------------
This track looks like CDDA with probability 100%
------------------------------------------------------------
Processing file: [08. Equinox.wav]
------------------------------------------------------------
This track looks like CDDA with probability 100%
------------------------------------------------------------
Processing file: [09. Life Is A Cobra.wav]
------------------------------------------------------------
This track looks like CDDA with probability 99%
------------------------------------------------------------
Processing file: [10. Tarkovski.wav]
------------------------------------------------------------
This track looks like CDDA with probability 100%
------------------------------------------------------------
Final Conclusion:
------------------------------------------------------------
These tracks looks like CDDA with probability 100%
Доп. информация:
 
Album Info & AAJ Review
(Kari Heinila) - 1,6
(Miles Davis, arr. Eero Koivistoinen) - 2
(Kari Komppa) - 3
(Eero Koivistoinen) - 4,7
(Jukka Linkola) - 5
(John Coltrane, arr. Eero Koivistoinen) - 8
(Jarmo Savolainen) - 9
(Kirmo Lintinen) - 10
Recorded 26th to 30th May, 1997, by Dan Tigerstedt at Finnvox Studios, Helsinki
Additional recordings by Heikki Savolainen at The Finnish National Opera Studios, Helsinki
Mixed & mastered by Heikki Savolainen at The Finnish National Opera Studios
Mike Nock: executive producer
Eero Koivistoinen: producer
Cover painting: Newtown Summer by Dave Brewster (b. 1957)
Liner notes: Tom Sandberg, translated by Susan Sinisalo
The Big Band at the End of the Century. There are several very fine and innovative Big Bands composing and performing right now. They include the bands headed by Carla Bley, Maria Schneider, Toshiko Akiyoshi, McCoy Tyner, and Bob Mintzer. To borrow from Downbeat magazine, a big band "talent deserving wider recognition" is the Finnish Umo Jazz Orchestra.
Scandinavian Swing. The Umo Jazz Orchestra was founded in 1975 by a group of Finnish Jazz musicians who had been working irregularly as the Radio Dance Orchestra. Umo performed on a part time basis until 1984, when the group received funding from several Finnish local and national government concerns. Their web page discography boasts 14 records (mostly for Finnish Labels), this Naxos Jazz recording being the most recent (and the first big band outing for Naxos). In the past decade, the Umo Orchestra has supported American talent no less than that of Dizzy Gillespie, Thad Jones, Gil Evans, Joe Williams, and Billy Eckstine.
Kicking Brass. From the opener, "Frozen Petals," this disc promises to be a low brass extravaganza. Nice touch. This music is not unlike many Carla Bley arrangements. However, Bley's compositions and arrangements are almost downright shy compared to what Umo does on this disc. Several pieces employee aggressive, oratorical drumming behind the soloist that reminds the listener of Elvin Jones behind John Coltrane. This is most evident on the disc opener and, appropriately enough, Coltrane's "Equinox", where Markus Ketola percussively plows the ground beneath tenorists Manuel Dunkel ("Frozen Petals") and Eero Koivistoinen ("Equinox").
Other notable happenings on the disc are Anders Bergcrantz's fluegelhorn solo on "All Blues," Seppo Kantonen's piano on "What Is This?" and "Cuckoo's Nest," Jarmo Saari's guitar on "Tarkovski," and Markku Veijonsuo's trombone on "Blue In The Distance." All of the solos were of the highest order and the sonics of the record are superb.
A Revisionist Arrangement. This disc contains two standards: Miles Davis' "All Blues" and John Coltrane's "Equinox". They are both creatively arranged. "All Blues" begins with some vocalese before the familiar theme is stated by Bergcrantz's fluegelhorn. Once the head is executed, the rhythm shifts to a rock-like backbeat behind Bergcrantz's solo before happily deconstructing into that thing called jazz. "Equinox" turns out to be the disc's centerpiece, a 21st Century blues with Eero Koivistoinen's tenor approximating Coltrane's "sheets of sound." This is the most exciting cut on a disc that is full of exciting cuts and uniformly excellent playing. This is big, boisterous, and good-natured music. Happy and loud.
Ariadne auf Naxos Redux. Naxos is off to a famous start with their first two rounds of releases on Naxos Jazz. I agree with Gramophone 's Roger Thomas when he said of this second wave of Naxos Jazz releases, "...a retail price of [$5.99] for beautifully recorded original material once again returns me to the view that there's simply no good reason for not buying all four or these discs." The other discs in this second wave of releases are the Los Angeles Jazz Quartet, Look to the East ; James Zollar, Soaring with Bird ; and Niko Schauble, On the Other Hand (all reviewed this month in these pages).
 
Состав
Pentti Lahti: asax, ssax, fl
Jouni Jarvela: asax, ssax, cl
Manuel Dunkel: tsax, fl
Teemu Salminen: tsax, bcl, cl, fl
Pertti Paivinen: bars, bcl, fl
Esko Heikkinen, Timo Paasonen, Teemu Mattsson, Mikko Pettinen: trumpets & flugelhorns
Markku Veijonsuo: trombone
Mikko Mustonen: euph
Pekka Laukkanen: tuba
Mikael Langbacka: btrb
Seppo Kantonen: piano
Kirmo Lintinen: synthesizer (5)
Jarmo Saari: guitar (2,4,9,10)
Markku Kanerva: guitar (5)
Pekka Sarmanto: double bass
Hannu Rantanen: electric bass (2,5,9)
Markus Ketola: drums
Mongo Aaltonen: percussion
Kari Heinila: conductor (1,2,4,6,7,8)
Kirmo Lintinen: conductor (3,5,9,10)
Anders Bergcrantz: trumpet & fluegelhorn solos
Bina Nkwazi: additional vocals (2)
Jarmo Saari: additional vocals (9)
Eero Koivistoinen: saxophone solo (8)
По всем вопросам пишите личное сообщение пользователю M0p94ok.
10:07
203
Нет комментариев. Ваш будет первым!