Вы используете незарегистрированную версию компонента "Вкладки"!

Поиск

(Modern Creative, Post-Bop) Daniel Humair - Surrounded 1964/1987 - 1987, WavPack (image+.cue), lossless

Треклист:
Daniel Humair - Surrounded 1964/1987
Жанр: Modern Creative, Post-Bop
Страна-производитель диска: Франция
Год издания: 1987
Издатель (лейбл): MPO
Номер по каталогу: 239228
Аудиокодек: WavPack (*.wv)
Тип рипа: image+.cue
Битрейт аудио: lossless
Продолжительность: 69:56
Источник (релизер): ffsf (hqshare)
Наличие сканов в содержимом раздачи: да
Треклист:
01. Les (Dolphy) - 4:06
02. Serene (Dolphy) - 4:12
03. Au Privave (Parker) - 9:39
04. Walking Shoes (Mulligan) - 6:03
05. Nite at St. Nicks (Woods) - 5:15
06. Pressing a Deux (Humair-Portal) - 5:24
07. Stable Mates (Golson) - 5:37
08. I've Got Rhythm But No Melody (Bloom) - 7:50
09. Crazy Rhythm (Meyer-Kahn-Ceasar) - 5:41
10. Wee (Johnson) - 4:24
11. Cesar (Portal) - 5:54
12. Espace Sonore No.1 (Humair) - 5:50
Записи 1964-1987 гг.
 
Лог создания рипа
Exact Audio Copy V1.0 beta 3 from 29. August 2011
EAC extraction logfile from 21. April 2012, 12:54
Daniel Humair / Surrounded
Used drive : HL-DT-STDVDRAM GT20N Adapter: 1 ID: 0
Read mode : Secure
Utilize accurate stream : Yes
Defeat audio cache : Yes
Make use of C2 pointers : No
Read offset correction : 667
Overread into Lead-In and Lead-Out : No
Fill up missing offset samples with silence : Yes
Delete leading and trailing silent blocks : No
Null samples used in CRC calculations : Yes
Used interface : Installed external ASPI interface
Used output format : Internal WAV Routines
Sample format : 44.100 Hz; 16 Bit; Stereo
TOC of the extracted CD
Track | Start | Length | Start sector | End sector
---------------------------------------------------------
1 | 0:00.00 | 4:05.70 | 0 | 18444
2 | 4:05.70 | 4:11.57 | 18445 | 37326
3 | 8:17.52 | 9:39.30 | 37327 | 80781
4 | 17:57.07 | 6:03.08 | 80782 | 108014
5 | 24:00.15 | 5:15.20 | 108015 | 131659
6 | 29:15.35 | 5:24.15 | 131660 | 155974
7 | 34:39.50 | 5:36.52 | 155975 | 181226
8 | 40:16.27 | 7:50.15 | 181227 | 216491
9 | 48:06.42 | 5:41.15 | 216492 | 242081
10 | 53:47.57 | 4:24.00 | 242082 | 261881
11 | 58:11.57 | 5:54.35 | 261882 | 288466
12 | 64:06.17 | 5:49.65 | 288467 | 314706
Range status and errors
Selected range
Filename L:\Daniel Humair - Surrounded\Daniel Humair - Surrounded.wav
Peak level 93.9 %
Extraction speed 4.3 X
Range quality 100.0 %
Test CRC 1D4A3569
Copy CRC 1D4A3569
Copy OK
No errors occurred
AccurateRip summary
Track 1 accurately ripped (confidence 1) [D89857DF] (AR v1)
Track 2 accurately ripped (confidence 1) [33894A14] (AR v1)
Track 3 accurately ripped (confidence 1) [3E0ABFBE] (AR v1)
Track 4 accurately ripped (confidence 1) [2323C8E5] (AR v1)
Track 5 accurately ripped (confidence 1) [729F5EDF] (AR v1)
Track 6 accurately ripped (confidence 1) [DD6375C4] (AR v1)
Track 7 accurately ripped (confidence 1) [4567B3B2] (AR v1)
Track 8 accurately ripped (confidence 1) [48E8A5E0] (AR v1)
Track 9 accurately ripped (confidence 1) [99209E68] (AR v1)
Track 10 accurately ripped (confidence 1) [B3934A08] (AR v1)
Track 11 accurately ripped (confidence 1) [FE914C6D] (AR v1)
Track 12 accurately ripped (confidence 1) [F3231B6F] (AR v1)
All tracks accurately ripped
End of status report
==== Log checksum E3A855D22F28990C48B5A66B00525F1144BEBF8FDF892CD8BADB62455D3CE114 ====
 
Содержание индексной карты (.CUE)
REM GENRE Jazz
REM DATE 1987
REM DISCID C310640C
REM COMMENT "ExactAudioCopy v1.0b3"
PERFORMER "Daniel Humair"
TITLE "Surrounded"
FILE "Daniel Humair - Surrounded 1964-1987.wav" WAVE
TRACK 01 AUDIO
TITLE "Les"
PERFORMER "Daniel Humair"
INDEX 01 00:00:00
TRACK 02 AUDIO
TITLE "Serene"
PERFORMER "Daniel Humair"
INDEX 00 04:03:36
INDEX 01 04:05:70
TRACK 03 AUDIO
TITLE "Au Privave"
PERFORMER "Daniel Humair"
INDEX 00 08:15:23
INDEX 01 08:17:52
TRACK 04 AUDIO
TITLE "Walking Shoes"
PERFORMER "Daniel Humair"
INDEX 00 17:53:73
INDEX 01 17:57:07
TRACK 05 AUDIO
TITLE "Nite at St. Nicks"
PERFORMER "Daniel Humair"
INDEX 00 23:57:45
INDEX 01 24:00:15
TRACK 06 AUDIO
TITLE "Pressing a Deux"
PERFORMER "Daniel Humair"
INDEX 00 29:12:55
INDEX 01 29:15:35
TRACK 07 AUDIO
TITLE "Stable Mates"
PERFORMER "Daniel Humair"
INDEX 00 34:34:05
INDEX 01 34:39:50
TRACK 08 AUDIO
TITLE "I've Got Rhythm But No Melody"
PERFORMER "Daniel Humair"
INDEX 00 40:13:73
INDEX 01 40:16:27
TRACK 09 AUDIO
TITLE "Crazy Rhythm"
PERFORMER "Daniel Humair"
INDEX 00 48:03:25
INDEX 01 48:06:42
TRACK 10 AUDIO
TITLE "Wee"
PERFORMER "Daniel Humair"
INDEX 00 53:44:70
INDEX 01 53:47:57
TRACK 11 AUDIO
TITLE "Cesar"
PERFORMER "Daniel Humair"
INDEX 00 58:08:43
INDEX 01 58:11:57
TRACK 12 AUDIO
TITLE "Espace Sonore No.1"
PERFORMER "Daniel Humair"
INDEX 00 64:03:50
INDEX 01 64:06:17
 
Review by Alain Drouot
Always more a team player than a natural leader, this compilation serves as a perfect introduction to one of the finest European drummers. Spanning almost a quarter of a century, the CD features an impressive cast, which testifies to Daniel Humair's stature and versatility: Eric Dolphy, Gerry Mulligan, Phil Woods, Johnny Griffin, Michel Portal, Martial Solal, and more. His opening statement on the first track, Dolphy's "Les," does not leave any doubt about the drummer's singular and commanding drive -- which can also be appreciated on burning versions of Charlie Parker's "Au Privave" and J.J. Johnson's "Wee." Humair's exuberance is tempered by his sensitivity, and Surrounded gives listeners a chance to admire his subtlety, which shines through his amazing cymbal work, but also in more subdued situations. His duet with pianist Solal, where he totally puts himself to the service of the pianist and music, serves as a perfect example. The other duet with Portal is a rare opportunity to hear him in a free setting, since his musical bent has always privileged a clear connection with the jazz tradition. And if the impressive display of talent was not enough to convince the most recalcitrant listeners, a first-rate unaccompanied drum solo brings the album to a close. This admirable document on Humair's evolution and various musical interests is highly recommended.
Any questions -> support@pro-jazz.com. По всем вопросам пишите -> support@pro-jazz.com
01:56
122
Нет комментариев. Ваш будет первым!