Вы используете незарегистрированную версию компонента "Вкладки"!

Поиск

( free jazz, avant-garde) Don Cherry - Organic Music Society 1973, FLAC (tracks+.cue), lossless

( free jazz, avant-garde) Don Cherry - Organic Music Society 1973, FLAC (tracks+.cue), lossless
Треклист:


Don Cherry - Organic Music Society 1973

Жанр: free jazz, avant-garde
Год выпуска: 1973
Издатель (лейбл): 2012 Caprice Records / CAP 21827
Формат: FLAC (tracks+.cue)
Битрейт аудио: lossless
Продолжительность 1`20`13
Источник: what.cd

tracks

1. North Brazilian Ceremonial Hymn
2. Elixir
3. Manusha Raga Kamboji
4. Relativity Suite Part 1
5. Relativity Suite Part 2
6. Terry's Tune
7. Hope
8. The Creator Has a Master Plan
9. Sidharta
10. Utopia & Visions
11. Bra Joe From Kilimanjaro
12. Terry's Tune
13. Resa


 
.log
Exact Audio Copy V1.0 beta 3 from 29. August 2011
EAC extraction logfile from 19. June 2012, 13:14
Don Cherry / Organic Music Society
Used drive : PIONEER DVD-RW DVR-215D Adapter: 0 ID: 1
Read mode : Secure
Utilize accurate stream : Yes
Defeat audio cache : Yes
Make use of C2 pointers : No
Read offset correction : 48
Overread into Lead-In and Lead-Out : No
Fill up missing offset samples with silence : Yes
Delete leading and trailing silent blocks : No
Null samples used in CRC calculations : Yes
Used interface : Native Win32 interface for Win NT & 2000
Gap handling : Appended to previous track
Used output format : User Defined Encoder
Selected bitrate : 768 kBit/s
Quality : High
Add ID3 tag : No
Command line compressor : C:\Program Files (x86)\Exact Audio Copy\FLAC\FLAC.EXE
Additional command line options : -8 -V -T "ARTIST=%artist%" -T "TITLE=%title%" -T "ALBUM=%albumtitle%" -T "DATE=%year%" -T "TRACKNUMBER=%tracknr%" -T "GENRE=%genre%" -T "PERFORMER=%albuminterpret%" -T "COMPOSER=%composer%" %haslyrics%--tag-from-file=LYRICS="%lyricsfile%"%haslyrics% -T "ALBUMARTIST=%albumartist%" -T "DISCNUMBER=%cdnumber%" -T "TOTALDISCS=%totalcds%" -T "TOTALTRACKS=%numtracks%" -T "COMMENT=%comment%" %source% -o %dest%
TOC of the extracted CD
Track | Start | Length | Start sector | End sector
---------------------------------------------------------
1 | 0:00.00 | 12:24.67 | 0 | 55866
2 | 12:24.67 | 6:08.38 | 55867 | 83504
3 | 18:33.30 | 2:19.15 | 83505 | 93944
4 | 20:52.45 | 6:52.08 | 93945 | 124852
5 | 27:44.53 | 11:59.37 | 124853 | 178814
6 | 39:44.15 | 1:56.28 | 178815 | 187542
7 | 41:40.43 | 10:08.11 | 187543 | 233153
8 | 51:48.54 | 6:27.66 | 233154 | 262244
9 | 58:16.45 | 1:58.40 | 262245 | 271134
10 | 60:15.10 | 6:33.30 | 271135 | 300639
11 | 66:48.40 | 2:32.67 | 300640 | 312106
12 | 69:21.32 | 5:10.37 | 312107 | 335393
13 | 74:31.69 | 5:41.29 | 335394 | 360997
Track 1
Filename C:\Don Cherry - Organic Music Society\01 - North Brazilian Ceremonial Hymn.wav
Pre-gap length 0:00:02.00
Peak level 90.1 %
Extraction speed 5.8 X
Track quality 100.0 %
Test CRC 15E701B7
Copy CRC 15E701B7
Track not present in AccurateRip database
Copy OK
Track 2
Filename C:\Don Cherry - Organic Music Society\02 - Elixir.wav
Peak level 100.0 %
Extraction speed 5.9 X
Track quality 99.9 %
Test CRC 3D8C26CE
Copy CRC 3D8C26CE
Track not present in AccurateRip database
Copy OK
Track 3
Filename C:\Don Cherry - Organic Music Society\03 - Manusha Raga Kamboji.wav
Peak level 64.1 %
Extraction speed 5.9 X
Track quality 100.0 %
Test CRC EBE50A00
Copy CRC EBE50A00
Track not present in AccurateRip database
Copy OK
Track 4
Filename C:\Don Cherry - Organic Music Society\04 - Relativity Suite Part 1.wav
Peak level 99.6 %
Extraction speed 7.0 X
Track quality 100.0 %
Test CRC FDF58327
Copy CRC FDF58327
Track not present in AccurateRip database
Copy OK
Track 5
Filename C:\Don Cherry - Organic Music Society\05 - Relativity Suite Part 2.wav
Peak level 100.0 %
Extraction speed 8.1 X
Track quality 100.0 %
Test CRC 047244AE
Copy CRC 047244AE
Track not present in AccurateRip database
Copy OK
Track 6
Filename C:\Don Cherry - Organic Music Society\06 - Terry's Tune.wav
Peak level 63.1 %
Extraction speed 6.8 X
Track quality 100.0 %
Test CRC D04E1D20
Copy CRC D04E1D20
Track not present in AccurateRip database
Copy OK
Track 7
Filename C:\Don Cherry - Organic Music Society\07 - Hope.wav
Peak level 58.4 %
Extraction speed 8.9 X
Track quality 100.0 %
Test CRC 7313DEA2
Copy CRC 7313DEA2
Track not present in AccurateRip database
Copy OK
Track 8
Filename C:\Don Cherry - Organic Music Society\08 - The Creator Has a Master Plan.wav
Peak level 85.1 %
Extraction speed 9.1 X
Track quality 100.0 %
Test CRC 1D551E66
Copy CRC 1D551E66
Track not present in AccurateRip database
Copy OK
Track 9
Filename C:\Don Cherry - Organic Music Society\09 - Sidhartha.wav
Peak level 42.2 %
Extraction speed 6.2 X
Track quality 99.9 %
Test CRC 071A701D
Copy CRC 071A701D
Track not present in AccurateRip database
Copy OK
Track 10
Filename C:\Don Cherry - Organic Music Society\10 - Utopia & Vision.wav
Peak level 87.2 %
Extraction speed 8.7 X
Track quality 99.9 %
Test CRC 372B27AB
Copy CRC 372B27AB
Track not present in AccurateRip database
Copy OK
Track 11
Filename C:\Don Cherry - Organic Music Society\11 - Bra Joe From Kilimanjaro.wav
Peak level 93.4 %
Extraction speed 8.5 X
Track quality 100.0 %
Test CRC DA4D2F52
Copy CRC DA4D2F52
Track not present in AccurateRip database
Copy OK
Track 12
Filename C:\Don Cherry - Organic Music Society\12 - Terry's Tune.wav
Peak level 84.4 %
Extraction speed 1.0 X
Track quality 100.0 %
Test CRC EF93AD82
Copy CRC EF93AD82
Track not present in AccurateRip database
Copy OK
Track 13
Filename C:\Don Cherry - Organic Music Society\13 - Resa.wav
Peak level 73.0 %
Extraction speed 1.0 X
Track quality 100.0 %
Test CRC 0DC6D4B8
Copy CRC 0DC6D4B8
Track not present in AccurateRip database
Copy OK
None of the tracks are present in the AccurateRip database
No errors occurred
End of status report
---- CUETools DB Plugin V2.1.3
[CTDB TOCID: zBYCWmHDmNXgLUbo3JVaHC7JYzc-] disk not present in database, Submit result: zBYCWmHDmNXgLUbo3JVaHC7JYzc- has been uploaded
==== Log checksum 689A346F8CD6C07A6B87F1D9627EF785115A401D6089A043C978948A44DAE0DF ====
 
.cue
REM GENRE Jazz
REM DATE 1973
REM DISCID A912CD0D
REM COMMENT "ExactAudioCopy v1.0b3"
PERFORMER "Don Cherry"
TITLE "Organic Music Society"
FILE "01 - North Brazilian Ceremonial Hymn.wav" WAVE
TRACK 01 AUDIO
TITLE "North Brazilian Ceremonial Hymn"
PERFORMER "Don Cherry"
INDEX 01 00:00:00
FILE "02 - Elixir.wav" WAVE
TRACK 02 AUDIO
TITLE "Elixir"
PERFORMER "Don Cherry"
INDEX 01 00:00:00
FILE "03 - Manusha Raga Kamboji.wav" WAVE
TRACK 03 AUDIO
TITLE "Manusha Raga Kamboji"
PERFORMER "Don Cherry"
INDEX 01 00:00:00
FILE "04 - Relativity Suite Part 1.wav" WAVE
TRACK 04 AUDIO
TITLE "Relativity Suite Part 1"
PERFORMER "Don Cherry"
INDEX 01 00:00:00
FILE "05 - Relativity Suite Part 2.wav" WAVE
TRACK 05 AUDIO
TITLE "Relativity Suite Part 2"
PERFORMER "Don Cherry"
INDEX 01 00:00:00
FILE "06 - Terry's Tune.wav" WAVE
TRACK 06 AUDIO
TITLE "Terry's Tune"
PERFORMER "Don Cherry"
INDEX 01 00:00:00
FILE "07 - Hope.wav" WAVE
TRACK 07 AUDIO
TITLE "Hope"
PERFORMER "Don Cherry"
INDEX 01 00:00:00
FILE "08 - The Creator Has a Master Plan.wav" WAVE
TRACK 08 AUDIO
TITLE "The Creator Has a Master Plan"
PERFORMER "Don Cherry"
INDEX 01 00:00:00
FILE "09 - Sidhartha.wav" WAVE
TRACK 09 AUDIO
TITLE "Sidhartha"
PERFORMER "Don Cherry"
INDEX 01 00:00:00
FILE "10 - Utopia & Vision.wav" WAVE
TRACK 10 AUDIO
TITLE "Utopia & Vision"
PERFORMER "Don Cherry"
INDEX 01 00:00:00
FILE "11 - Bra Joe From Kilimanjaro.wav" WAVE
TRACK 11 AUDIO
TITLE "Bra Joe From Kilimanjaro"
PERFORMER "Don Cherry"
INDEX 01 00:00:00
FILE "12 - Terry's Tune.wav" WAVE
TRACK 12 AUDIO
TITLE "Terry's Tune"
PERFORMER "Don Cherry"
INDEX 01 00:00:00
FILE "13 - Resa.wav" WAVE
TRACK 13 AUDIO
TITLE "Resa"
PERFORMER "Don Cherry"
INDEX 01 00:00:00

другие релизы
Any questions -> support@pro-jazz.com. По всем вопросам пишите -> support@pro-jazz.com
01:55
166
Нет комментариев. Ваш будет первым!