Вы используете незарегистрированную версию компонента "Вкладки"!

Поиск

(Pop, Funk, Hip-Hop, Jazz-Rock, Free Jazz) Neneh Cherry & The Thing (Mats Gustafsson, Ingebrigt Håker (Haker) Flaten, Paal Nilssen-Love) + (Christer Bothén, Mats Äleklint, Per-Åke Holmlander) - The Cherry Thing - 2012, FLAC (t

(Pop, Funk, Hip-Hop, Jazz-Rock, Free Jazz) Neneh Cherry & The Thing (Mats Gustafsson, Ingebrigt Håker (Haker) Flaten, Paal Nilssen-Love) + (Christer Bothén, Mats Äleklint, Per-Åke Holmlander) - The Cherry Thing - 2012, FLAC (t
Треклист:
Neneh Cherry & The Thing / The Cherry Thing
Жанр: Pop, Funk, Hip-Hop, Jazz-Rock, Free Jazz
Страна-производитель диска: Норвегия
Год издания: 2012
Издатель (лейбл): Smalltown Supersound
Номер по каталогу: STS229CD
Страна: Швеция, Норвегия
Аудиокодек: FLAC (*.flac)
Тип рипа: tracks+.cue
Битрейт аудио: lossless
Продолжительность: 51:03
Источник (релизер): вот.сиди (janlugt)
Наличие сканов в содержимом раздачи: нет
Треклист:
1 Cashback (N. Cherry)
2 Dream Baby Dream (A. Vega & M. Rev)
3 Too Tough To Die (D.P. Holmes, M. Topley-Bird & C.Page)
4 Sudden Moment (M. Gustafsson)
5 Accordion (D. Dumile & O. Jackson)
6 Golden Heart (D. Cherry)
7 Dirt (J. Osterberg, R. Asheton, S. Asheton, D. Alexander)
8 What Reason (O. Coleman)
 
Лог создания рипа
Exact Audio Copy V1.0 beta 3 from 29. August 2011
EAC extraction logfile from 20. June 2012, 17:51
Neneh Cherry & The Thing / The Cherry Thing
Used drive : ASUS DRW-1604P Adapter: 1 ID: 0
Read mode : Secure
Utilize accurate stream : Yes
Defeat audio cache : Yes
Make use of C2 pointers : No
Read offset correction : 48
Overread into Lead-In and Lead-Out : No
Fill up missing offset samples with silence : Yes
Delete leading and trailing silent blocks : No
Null samples used in CRC calculations : Yes
Used interface : Native Win32 interface for Win NT & 2000
Gap handling : Appended to previous track
Used output format : User Defined Encoder
Selected bitrate : 1024 kBit/s
Quality : High
Add ID3 tag : No
Command line compressor : C:\Program Files (x86)\Exact Audio Copy\Flac\flac.exe
Additional command line options : -8 -V -T "ARTIST=%artist%" -T "TITLE=%title%" -T "ALBUM=%albumtitle%" -T "DATE=%year%" -T "TRACKNUMBER=%tracknr%" -T "GENRE=%genre%" -T "PERFORMER=%albuminterpret%" -T "COMPOSER=%composer%" %haslyrics%--tag-from-file=LYRICS="%lyricsfile%"%haslyrics% -T "ALBUMARTIST=%albumartist%" -T "DISCNUMBER=%cdnumber%" -T "TOTALDISCS=%totalcds%" -T "TOTALTRACKS=%numtracks%" -T "COMMENT=%comment%" %source% -o %dest%
TOC of the extracted CD
Track | Start | Length | Start sector | End sector
---------------------------------------------------------
1 | 0:00.00 | 5:58.52 | 0 | 26901
2 | 5:58.52 | 8:24.42 | 26902 | 64743
3 | 14:23.19 | 5:13.58 | 64744 | 88276
4 | 19:37.02 | 8:26.55 | 88277 | 126281
5 | 28:03.57 | 6:10.25 | 126282 | 154056
6 | 34:14.07 | 4:43.29 | 154057 | 175310
7 | 38:57.36 | 6:47.45 | 175311 | 205880
8 | 45:45.06 | 5:18.17 | 205881 | 229747
Track 1
Filename C:\EAC Rips\Neneh Cherry & The Thing - The Cherry Thing (2012) [FLAC]\01 - Cashback.wav
Pre-gap length 0:00:02.00
Peak level 100.0 %
Extraction speed 4.8 X
Track quality 100.0 %
Test CRC B0AC72C1
Copy CRC B0AC72C1
Track not present in AccurateRip database
Copy OK
Track 2
Filename C:\EAC Rips\Neneh Cherry & The Thing - The Cherry Thing (2012) [FLAC]\02 - Dream Baby Dream.wav
Peak level 100.0 %
Extraction speed 5.7 X
Track quality 100.0 %
Test CRC 76BC6421
Copy CRC 76BC6421
Track not present in AccurateRip database
Copy OK
Track 3
Filename C:\EAC Rips\Neneh Cherry & The Thing - The Cherry Thing (2012) [FLAC]\03 - Too Tough to Die.wav
Peak level 98.9 %
Extraction speed 6.1 X
Track quality 100.0 %
Test CRC 9474F31A
Copy CRC 9474F31A
Track not present in AccurateRip database
Copy OK
Track 4
Filename C:\EAC Rips\Neneh Cherry & The Thing - The Cherry Thing (2012) [FLAC]\04 - Sudden Moment.wav
Peak level 100.0 %
Extraction speed 6.9 X
Track quality 100.0 %
Test CRC 25A4346B
Copy CRC 25A4346B
Track not present in AccurateRip database
Copy OK
Track 5
Filename C:\EAC Rips\Neneh Cherry & The Thing - The Cherry Thing (2012) [FLAC]\05 - Accordion.wav
Peak level 98.9 %
Extraction speed 7.3 X
Track quality 100.0 %
Test CRC 7E48D585
Copy CRC 7E48D585
Track not present in AccurateRip database
Copy OK
Track 6
Filename C:\EAC Rips\Neneh Cherry & The Thing - The Cherry Thing (2012) [FLAC]\06 - Golden Heart.wav
Peak level 100.0 %
Extraction speed 7.4 X
Track quality 100.0 %
Test CRC F68E630B
Copy CRC F68E630B
Track not present in AccurateRip database
Copy OK
Track 7
Filename C:\EAC Rips\Neneh Cherry & The Thing - The Cherry Thing (2012) [FLAC]\07 - Dirt.wav
Peak level 100.0 %
Extraction speed 8.0 X
Track quality 100.0 %
Test CRC FF150EA6
Copy CRC FF150EA6
Track not present in AccurateRip database
Copy OK
Track 8
Filename C:\EAC Rips\Neneh Cherry & The Thing - The Cherry Thing (2012) [FLAC]\08 - What Reason Could I Give.wav
Pre-gap length 0:00:01.14
Peak level 97.5 %
Extraction speed 8.2 X
Track quality 100.0 %
Test CRC 73CBB288
Copy CRC 73CBB288
Track not present in AccurateRip database
Copy OK
None of the tracks are present in the AccurateRip database
No errors occurred
End of status report
---- CUETools DB Plugin V2.1.3
[CTDB TOCID: TMgBJxxNoxBvafCOY.B8kI40Lz4-] disk not present in database, Submit result: TMgBJxxNoxBvafCOY.B8kI40Lz4- has been uploaded
==== Log checksum 99C6896312753227638003421A4EF8556FEAAC524F7F42FE8C5538F692D09765 ====
 
Содержание индексной карты (.CUE)
REM GENRE Jazz
REM DATE 2012
REM DISCID 760BF708
REM COMMENT "ExactAudioCopy v1.0b3"
PERFORMER "Neneh Cherry & The Thing"
TITLE "The Cherry Thing"
FILE "01 - Cashback.wav" WAVE
TRACK 01 AUDIO
TITLE "Cashback"
PERFORMER "Neneh Cherry & The Thing"
ISRC NOSTS1229010
INDEX 01 00:00:00
FILE "02 - Dream Baby Dream.wav" WAVE
TRACK 02 AUDIO
TITLE "Dream Baby Dream"
PERFORMER "Neneh Cherry & The Thing"
ISRC NOSTS1229020
INDEX 01 00:00:00
FILE "03 - Too Tough to Die.wav" WAVE
TRACK 03 AUDIO
TITLE "Too Tough to Die"
PERFORMER "Neneh Cherry & The Thing"
ISRC NOSTS1229030
INDEX 01 00:00:00
FILE "04 - Sudden Moment.wav" WAVE
TRACK 04 AUDIO
TITLE "Sudden Moment"
PERFORMER "Neneh Cherry & The Thing"
ISRC NOSTS1229040
INDEX 01 00:00:00
FILE "05 - Accordion.wav" WAVE
TRACK 05 AUDIO
TITLE "Accordion"
PERFORMER "Neneh Cherry & The Thing"
ISRC NOSTS1229050
INDEX 01 00:00:00
FILE "06 - Golden Heart.wav" WAVE
TRACK 06 AUDIO
TITLE "Golden Heart"
PERFORMER "Neneh Cherry & The Thing"
ISRC NOSTS1229060
INDEX 01 00:00:00
FILE "07 - Dirt.wav" WAVE
TRACK 07 AUDIO
TITLE "Dirt"
PERFORMER "Neneh Cherry & The Thing"
ISRC NOSTS1229070
INDEX 01 00:00:00
TRACK 08 AUDIO
TITLE "What Reason Could I Give"
PERFORMER "Neneh Cherry & The Thing"
ISRC NOSTS1229080
INDEX 00 06:46:34
FILE "08 - What Reason Could I Give.wav" WAVE
INDEX 01 00:00:00
 
Лог проверки качества
AUDIOCHECKER v2.0 beta (build 457) - by Dester - opdester@freemail.hu
~~~~~~~~~~~~~~~~~~~~~~~~~~~~~~~~~~
-=== DO NOT EDIT THIS FILE! ===-
Path: ...\Neneh Cherry & The Thing - The Cherry Thing (2012) [FLAC]
1 -=- 01 - Cashback.flac -=- CDDA (100%)
2 -=- 02 - Dream Baby Dream.flac -=- CDDA (100%)
3 -=- 03 - Too Tough to Die.flac -=- CDDA (99%)
4 -=- 04 - Sudden Moment.flac -=- CDDA (100%)
5 -=- 05 - Accordion.flac -=- CDDA (100%)
6 -=- 06 - Golden Heart.flac -=- CDDA (100%)
7 -=- 07 - Dirt.flac -=- CDDA (100%)
8 -=- 08 - What Reason Could I Give.flac -=- CDDA (100%)
Summary 99,88% CDDA
116706532
 
Состав
Neneh Cherry vocals
Mats Gustafsson tenor, baritone saxophones, live electronics, organ
Ingebrigt Håker Flaten double bass, electric bass, vibes, electronics
Paal Nilssen-Love drums & percussion
&
Christer Bothén guimbri donso n'goni
Mats Äleklint trombone, horns arrangements
Per-Åke Holmlander tuba cimbasso
http://creativejazzfans.blogspot.com/
Any questions -> support@pro-jazz.com. По всем вопросам пишите -> support@pro-jazz.com
01:56
159
Нет комментариев. Ваш будет первым!