Вы используете незарегистрированную версию компонента "Вкладки"!

Поиск

(Modern Creative / Post-Bop) Ben Allison - Cowboy Justice - 2006, FLAC (image+.cue), lossless

(Modern Creative / Post-Bop) Ben Allison - Cowboy Justice - 2006, FLAC (image+.cue), lossless
Треклист:
Ben Allison - Cowboy Justice
Жанр: Modern Creative / Post-Bop
Год выпуска диска: 2006
Производитель диска: Palmetto (PM2117)
Аудио кодек: FLAC
Тип рипа: image+.cue
Битрейт аудио: lossless
Продолжительность: 0:47:15
Трэклист:
01. Tricky Dick (6:37)
02. Talking Heads (5:58)
03. Hey Man (5:22)
04. Emergency (5:33)
05. Midnight Cowboy (4:56)
06. Tricky Rides Again (3:18)
07. Weazy (4:58)
08. Ruby's Roundabout (4:48)
09. Blabbermouth (5:45)
Ben Allison: bass, acoustic guitar
Ron Horton: trumpet, flugelhorn
Steve Cardenas: electric & acoustic guitar
Jeff Ballard: drums
За рип спасибо kruno
 
EAC Log
Exact Audio Copy V0.99 prebeta 4 from 23. January 2008
EAC extraction logfile from 25. January 2010, 17:54
Ben Allison / Cowboy Justice
Used drive : Optiarc DVD RW AD-7170S Adapter: 3 ID: 0
Read mode : Secure
Utilize accurate stream : Yes
Defeat audio cache : Yes
Make use of C2 pointers : No
Read offset correction : 48
Overread into Lead-In and Lead-Out : No
Fill up missing offset samples with silence : Yes
Delete leading and trailing silent blocks : No
Null samples used in CRC calculations : Yes
Used interface : Installed external ASPI interface
Used output format : User Defined Encoder
Selected bitrate : 768 kBit/s
Quality : High
Add ID3 tag : No
Command line compressor : D:\Program Files\FLAC\flac.exe
Additional command line options : -8 -V -T "album=%g" -T "date=%y" -T "genre=%m" -- %s
TOC of the extracted CD
Track | Start | Length | Start sector | End sector
---------------------------------------------------------
1 | 0:00.00 | 6:36.62 | 0 | 29761
2 | 6:36.62 | 5:57.50 | 29762 | 56586
3 | 12:34.37 | 5:22.10 | 56587 | 80746
4 | 17:56.47 | 5:33.28 | 80747 | 105749
5 | 23:30.00 | 4:56.12 | 105750 | 127961
6 | 28:26.12 | 3:18.18 | 127962 | 142829
7 | 31:44.30 | 4:57.52 | 142830 | 165156
8 | 36:42.07 | 4:47.43 | 165157 | 186724
9 | 41:29.50 | 5:45.02 | 186725 | 212601
Range status and errors
Selected range
Filename D:\work\eac\Ben Allison - Cowboy Justice.wav
Peak level 99.8 %
Range quality 100.0 %
Test CRC 06012FC8
Copy CRC 06012FC8
Copy OK
No errors occurred
AccurateRip summary
Track 1 accurately ripped (confidence 2) [AAC92CF3]
Track 2 accurately ripped (confidence 2) [2F05DED3]
Track 3 accurately ripped (confidence 2) [60E8B923]
Track 4 accurately ripped (confidence 2) [FFB8C6B7]
Track 5 accurately ripped (confidence 2) [B29427BA]
Track 6 accurately ripped (confidence 2) [BFC87A4A]
Track 7 accurately ripped (confidence 2) [8D0A2037]
Track 8 accurately ripped (confidence 2) [40852203]
Track 9 accurately ripped (confidence 2) [C201F225]
All tracks accurately ripped
End of status report
По всем вопросам пишите личное сообщение пользователю M0p94ok.
19:50
123
Нет комментариев. Ваш будет первым!