Вы используете незарегистрированную версию компонента "Вкладки"!

Поиск

(Avant-Garde Jazz, Jazz Instrument, Saxophone Jazz, Free Improvisation) Keshavan Maslak - Mother Russia - 1991, APE (image+.cue), lossless

(Avant-Garde Jazz, Jazz Instrument, Saxophone Jazz, Free Improvisation) Keshavan Maslak - Mother Russia - 1991, APE (image+.cue), lossless
Треклист:
Keshavan Maslak - Mother Russia
Жанр: Avant-Garde Jazz, Jazz Instrument, Saxophone Jazz, Free Improvisation
Год выпуска диска: 1991
Производитель диска: Leo Rec, CD LR 177
Аудио кодек: APE
Тип рипа: image+.cue
Битрейт аудио: lossless
Продолжительность: 61'42''
Трэклист:
1. Kenny Millions Praises the Mother - Kenny Millions
2. Kenny Meets Misha From Hieronymus Bosch - Kenny Millions
3. One Million Little Russians - Kenny Millions, Anatoly Vapirov
4. Two Million Little Russians - Kenny Millions, Anatoly Vapirov
5. Three Million Little Russians - Kenny Millions, Anatoly Vapirov
6. Four Million Little Russians - Kenny Millions, Anatoly Vapirov
7. Five Million Little Russians - Kenny Millions, Anatoly Vapirov
8. Kenny Talks Turkey With Vladimir - Kenny Millions
9. Kenny Searches for Zen - Kenny Millions
Доп. информация:
#1&9 - solo alto
#2 - K.M. (alto)
Misha Alperin (piano)
#3-7 - K.M.&Anatoly Vapirov (reads)
#8 - K. Maslak (alto, tenor & clarinet)&Vladimir Tarasov (drums)
Собственный релиз с оригинального диска
 
EACLOG
Exact Audio Copy V0.99 prebeta 4 from 23. January 2008
Отчёт EAC об извлечении, выполненном 4. марта 2010, 15:01
keshavan maslak / mother russia
Дисковод: TSSTcorpCDDVDW SH-S203D Adapter: 3 ID: 0
Режим чтения : Достоверность
Использование точного потока : Да
Отключение кэша аудио : Да
Использование указателей C2 : Нет
Коррекция смещения при чтении : 6
Способность читать области Lead-in и Lead-out : Нет
Заполнение пропущенных сэмплов тишиной : Да
Удаление блоков с тишиной в начале и конце : Нет
При вычислениях CRC использовались нулевые сэмплы : Да
Интерфейс : Установленный внешний ASPI-интерфейс
Выходной формат : Внутренние WAV-операции
Формат сэмплов : 44.100 Гц; 16 бит; стерео
TOC извлечённого CD
Трек | Старт | Длительность | Начальный сектор | Конечный сектор
---------------------------------------------------------------------
1 | 0:00.33 | 6:00.10 | 33 | 27042
2 | 6:00.43 | 7:50.57 | 27043 | 62349
3 | 13:51.25 | 5:32.55 | 62350 | 87304
4 | 19:24.05 | 4:18.45 | 87305 | 106699
5 | 23:42.50 | 3:58.25 | 106700 | 124574
6 | 27:41.00 | 5:44.63 | 124575 | 150437
7 | 33:25.63 | 6:46.57 | 150438 | 180944
8 | 40:12.45 | 23:59.00 | 180945 | 288869
9 | 64:11.45 | 8:15.33 | 288870 | 326027
Характеристики диапазона извлечения и сообщения об ошибках
Выбранный диапазон
Имя файла E:\FOS\MISIC\Maslak\keshavan maslak - mother russia\keshavan maslak - mother russia.wav
Пиковый уровень 90.1 %
Качество диапазона 99.9 %
CRC копии 655BC02C
Копирование... OK
Ошибок не произошло
Конец отчёта
Any questions -> support@pro-jazz.com. По всем вопросам пишите -> support@pro-jazz.com
19:51
127
Нет комментариев. Ваш будет первым!