Вы используете незарегистрированную версию компонента "Вкладки"!

Поиск

(act, Modern Creative) Wollny / Kruse / Schaefer - [em] 3 - 2008, FLAC (tracks+.cue), lossless

(act, Modern Creative) Wollny / Kruse / Schaefer - [em] 3 - 2008, FLAC (tracks+.cue), lossless
Треклист:
Wollny / Kruse / Schaefer - [em] 3
Жанр: Modern Creative
Год выпуска диска: 2008
Производитель диска: ACT (ACT 9660-2)
Аудио кодек: FLAC
Тип рипа: tracks+.cue
Битрейт аудио: lossless
Продолжительность: 0:51:46
Трэклист:
01. Sempre Igor (4:05)
02. Arsene Somnambule (5:55)
03. Wo leichte Kahne fliehen (3:30)
04. Monsters - Symmetriads (6:19)
05. Ephemere Phone (1:39)
06. Love of her life (4:37)
07. Nocturne (3:58)
08. Kiyoshi (4:35)
09. Lautloser Adel (3:59)
10. What Kurtag left (2:30)
11. Grieg's last bow (2:58)
12. Gravite (4:18)
13. Redux (3:23)
Michael Wollny - piano
Eva Kruse - bass
Eric Schaefer - drums
За рип спасибо tdelyon
 
EAC Log
Exact Audio Copy V0.99 prebeta 5 from 4. May 2009
EAC extraction logfile from 27. February 2010, 23:42
Wollny, Kruse, Schaefer / [em] 3
Used drive : PHILIPS SPD3400CC Adapter: 1 ID: 0
Read mode : Secure
Utilize accurate stream : Yes
Defeat audio cache : Yes
Make use of C2 pointers : No
Read offset correction : 6
Overread into Lead-In and Lead-Out : No
Fill up missing offset samples with silence : Yes
Delete leading and trailing silent blocks : No
Null samples used in CRC calculations : Yes
Used interface : Installed external ASPI interface
Gap handling : Appended to previous track
Used output format : User Defined Encoder
Selected bitrate : 768 kBit/s
Quality : High
Add ID3 tag : No
Command line compressor : C:\Program Files (x86)\Exact Audio Copy\Flac\flac.exe
Additional command line options : -8 -V -T "ARTIST=%a" -T "TITLE=%t" -T "ALBUM=%g" -T "DATE=%y" -T "TRACKNUMBER=%n" -T "TOTALTRACKS=%x" -T "GENRE=%m" -T "ALBUM ARTIST=%v" -T "ALBUMARTIST=%v" -T "COMMENT=EAC V0.99 prebeta 5, Secure Mode, Test & Copy, Accurat
TOC of the extracted CD
Track | Start | Length | Start sector | End sector
---------------------------------------------------------
1 | 0:00.00 | 4:04.63 | 0 | 18362
2 | 4:04.63 | 5:54.66 | 18363 | 44978
3 | 9:59.54 | 3:29.51 | 44979 | 60704
4 | 13:29.30 | 6:18.68 | 60705 | 89122
5 | 19:48.23 | 1:39.04 | 89123 | 96551
6 | 21:27.27 | 4:37.20 | 96552 | 117346
7 | 26:04.47 | 3:57.63 | 117347 | 135184
8 | 30:02.35 | 4:35.27 | 135185 | 155836
9 | 34:37.62 | 3:58.66 | 155837 | 173752
10 | 38:36.53 | 2:30.05 | 173753 | 185007
11 | 41:06.58 | 2:58.18 | 185008 | 198375
12 | 44:05.01 | 4:17.44 | 198376 | 217694
13 | 48:22.45 | 3:23.21 | 217695 | 232940
Track 1
Filename C:\Rips\Wollny, Kruse, Schaefer - [em] 3\01 - Sempre Igor.wav
Pre-gap length 0:00:02.00
Peak level 98.6 %
Track quality 100.0 %
Test CRC F6EA7AAB
Copy CRC F6EA7AAB
Accurately ripped (confidence 12) [CC5588CA]
Copy OK
Track 2
Filename C:\Rips\Wollny, Kruse, Schaefer - [em] 3\02 - Arsene Somnambule.wav
Pre-gap length 0:00:02.36
Peak level 98.5 %
Track quality 100.0 %
Test CRC C74E7B26
Copy CRC C74E7B26
Accurately ripped (confidence 12) [F824BACB]
Copy OK
Track 3
Filename C:\Rips\Wollny, Kruse, Schaefer - [em] 3\03 - Wo leichte Kahne fliehen.wav
Pre-gap length 0:00:01.98
Peak level 98.5 %
Track quality 100.0 %
Test CRC 50A5C74E
Copy CRC 50A5C74E
Accurately ripped (confidence 12) [CFF55F32]
Copy OK
Track 4
Filename C:\Rips\Wollny, Kruse, Schaefer - [em] 3\04 - Monsters - Symmetriads.wav
Pre-gap length 0:00:04.82
Peak level 98.5 %
Track quality 100.0 %
Test CRC B81707CC
Copy CRC B81707CC
Accurately ripped (confidence 12) [5655188E]
Copy OK
Track 5
Filename C:\Rips\Wollny, Kruse, Schaefer - [em] 3\05 - Ephemere Phone.wav
Pre-gap length 0:00:02.36
Peak level 98.5 %
Track quality 100.0 %
Test CRC D24BF39B
Copy CRC D24BF39B
Accurately ripped (confidence 12) [AD4F0C21]
Copy OK
Track 6
Filename C:\Rips\Wollny, Kruse, Schaefer - [em] 3\06 - Love of her life.wav
Pre-gap length 0:00:03.50
Peak level 98.5 %
Track quality 99.9 %
Test CRC DD6224C7
Copy CRC DD6224C7
Accurately ripped (confidence 12) [D0650ABE]
Copy OK
Track 7
Filename C:\Rips\Wollny, Kruse, Schaefer - [em] 3\07 - Nocturne.wav
Pre-gap length 0:00:03.40
Peak level 98.5 %
Track quality 100.0 %
Test CRC CBD3516E
Copy CRC CBD3516E
Accurately ripped (confidence 12) [B5285366]
Copy OK
Track 8
Filename C:\Rips\Wollny, Kruse, Schaefer - [em] 3\08 - Kiyoshi.wav
Pre-gap length 0:00:03.94
Peak level 98.6 %
Track quality 100.0 %
Test CRC 5176E6DE
Copy CRC 5176E6DE
Accurately ripped (confidence 12) [F47952D5]
Copy OK
Track 9
Filename C:\Rips\Wollny, Kruse, Schaefer - [em] 3\09 - Lautloser Adel.wav
Pre-gap length 0:00:02.78
Peak level 98.5 %
Track quality 100.0 %
Test CRC 1544B329
Copy CRC 1544B329
Accurately ripped (confidence 12) [94BBB84C]
Copy OK
Track 10
Filename C:\Rips\Wollny, Kruse, Schaefer - [em] 3\10 - What Kurtag left.wav
Pre-gap length 0:00:03.58
Peak level 98.5 %
Track quality 99.9 %
Test CRC 3BC1FCB1
Copy CRC 3BC1FCB1
Accurately ripped (confidence 12) [EE1983C4]
Copy OK
Track 11
Filename C:\Rips\Wollny, Kruse, Schaefer - [em] 3\11 - Grieg's last bow.wav
Pre-gap length 0:00:02.89
Peak level 98.5 %
Track quality 100.0 %
Test CRC 2EA7C039
Copy CRC 2EA7C039
Accurately ripped (confidence 12) [599AC3A7]
Copy OK
Track 12
Filename C:\Rips\Wollny, Kruse, Schaefer - [em] 3\12 - Gravite.wav
Pre-gap length 0:00:03.61
Peak level 98.6 %
Track quality 100.0 %
Test CRC 27418267
Copy CRC 27418267
Accurately ripped (confidence 12) [C392A9BC]
Copy OK
Track 13
Filename C:\Rips\Wollny, Kruse, Schaefer - [em] 3\13 - Redux.wav
Pre-gap length 0:00:02.81
Peak level 98.5 %
Track quality 100.0 %
Test CRC 2FB55E3E
Copy CRC 2FB55E3E
Accurately ripped (confidence 12) [D9EA95AF]
Copy OK
All tracks accurately ripped
No errors occurred
End of status report
 
Cue
REM GENRE Jazz
REM DATE 2008
REM DISCID B30C210D
REM COMMENT "ExactAudioCopy v0.99pb5"
PERFORMER "Wollny, Kruse, Schaefer"
TITLE "[em] 3"
FILE "01 - Sempre Igor.wav" WAVE
TRACK 01 AUDIO
TITLE "Sempre Igor"
PERFORMER "Wollny, Kruse, Schaefer"
INDEX 01 00:00:00
TRACK 02 AUDIO
TITLE "Arsene Somnambule"
PERFORMER "Wollny, Kruse, Schaefer"
INDEX 00 04:02:36
FILE "02 - Arsene Somnambule.wav" WAVE
INDEX 01 00:00:00
TRACK 03 AUDIO
TITLE "Wo leichte Kahne fliehen"
PERFORMER "Wollny, Kruse, Schaefer"
INDEX 00 05:52:67
FILE "03 - Wo leichte Kahne fliehen.wav" WAVE
INDEX 01 00:00:00
TRACK 04 AUDIO
TITLE "Monsters - Symmetriads"
PERFORMER "Wollny, Kruse, Schaefer"
INDEX 00 03:24:64
FILE "04 - Monsters - Symmetriads.wav" WAVE
INDEX 01 00:00:00
TRACK 05 AUDIO
TITLE "Ephemere Phone"
PERFORMER "Wollny, Kruse, Schaefer"
INDEX 00 06:16:41
FILE "05 - Ephemere Phone.wav" WAVE
INDEX 01 00:00:00
TRACK 06 AUDIO
TITLE "Love of her life"
PERFORMER "Wollny, Kruse, Schaefer"
INDEX 00 01:35:41
FILE "06 - Love of her life.wav" WAVE
INDEX 01 00:00:00
TRACK 07 AUDIO
TITLE "Nocturne"
PERFORMER "Wollny, Kruse, Schaefer"
INDEX 00 04:33:65
FILE "07 - Nocturne.wav" WAVE
INDEX 01 00:00:00
TRACK 08 AUDIO
TITLE "Kiyoshi"
PERFORMER "Wollny, Kruse, Schaefer"
INDEX 00 03:53:67
FILE "08 - Kiyoshi.wav" WAVE
INDEX 01 00:00:00
TRACK 09 AUDIO
TITLE "Lautloser Adel"
PERFORMER "Wollny, Kruse, Schaefer"
INDEX 00 04:32:43
FILE "09 - Lautloser Adel.wav" WAVE
INDEX 01 00:00:00
TRACK 10 AUDIO
TITLE "What Kurtag left"
PERFORMER "Wollny, Kruse, Schaefer"
INDEX 00 03:55:22
FILE "10 - What Kurtag left.wav" WAVE
INDEX 01 00:00:00
TRACK 11 AUDIO
TITLE "Grieg's last bow"
PERFORMER "Wollny, Kruse, Schaefer"
INDEX 00 02:27:13
FILE "11 - Grieg's last bow.wav" WAVE
INDEX 01 00:00:00
TRACK 12 AUDIO
TITLE "Gravite"
PERFORMER "Wollny, Kruse, Schaefer"
INDEX 00 02:54:47
FILE "12 - Gravite.wav" WAVE
INDEX 01 00:00:00
TRACK 13 AUDIO
TITLE "Redux"
PERFORMER "Wollny, Kruse, Schaefer"
INDEX 00 04:14:58
FILE "13 - Redux.wav" WAVE
INDEX 01 00:00:00
Any questions -> support@pro-jazz.com. По всем вопросам пишите -> support@pro-jazz.com
19:50
216
Нет комментариев. Ваш будет первым!