Вы используете незарегистрированную версию компонента "Вкладки"!

Поиск

(Jazz,Experimental Big Band) Kammerflimmer Kollektief - Wildling-2010,FLAC (tracks+.cue),lossless

(Jazz,Experimental Big Band) Kammerflimmer Kollektief - Wildling-2010,FLAC (tracks+.cue),lossless
Треклист:
Kammerflimmer Kollektief - Wildling-2010,FLAC (tracks+.cue),lossless
Жанр: Jazz,Experimental Big Band
Год выпуска диска: 2010
Производитель диска: Germany
Аудио кодек: FLAC
Тип рипа: tracks+.cue
Битрейт аудио: lossless
Продолжительность: 00:53:49
Трэклист:
1. Move Right In (Drums - Christopher Brunner) 3:20
2. Silver Chords (Saxophone - Dietrich Foth) 3:09
3. Aum A Go-Go (Drums, Xylophone - Christopher Brunner) 2:34
4. In Transition (Version) 13:31
5. Spookin' The Horse (Drums - Christopher Brunner,Saxophone - Dietrich Foth) 4:29
6. Blind 2:17
7. Rotwelsch 4:25
8. Time Is The Fire In Which We Burn 3:55
9. Cry Tuff 3:28
10. We Paint The Town Beige (Drums - Christopher Brunner) 4:06
11. There's A Crack In Everything 6:17
12. Milte Hi Ankhen (aka Bird In Hand)Written By - Lee Perry 2:17
 
log EAC
Exact Audio Copy V0.99 prebeta 5 from 4. May 2009
EAC extraction logfile from 11. March 2010, 16:28
Kammerflimmer Kollektief / Wildling
Used drive : HL-DT-STDVD-RAM GH22LP20 Adapter: 0 ID: 0
Read mode : Secure
Utilize accurate stream : Yes
Defeat audio cache : Yes
Make use of C2 pointers : No
Read offset correction : 102
Overread into Lead-In and Lead-Out : No
Fill up missing offset samples with silence : Yes
Delete leading and trailing silent blocks : No
Null samples used in CRC calculations : Yes
Used interface : Installed external ASPI interface
Gap handling : Appended to previous track
Used output format : User Defined Encoder
Selected bitrate : 128 kBit/s
Quality : High
Add ID3 tag : No
Command line compressor : C:\Program Files\Exact Audio Copy\Flac\flac.exe
Additional command line options : -V -8 -T "artist=%a" -T "title=%t" -T "album=%g" -T "date=%y" -T "tracknumber=%n" -T "genre=%m" %s
TOC of the extracted CD
Track | Start | Length | Start sector | End sector
---------------------------------------------------------
1 | 0:00.00 | 3:19.39 | 0 | 14963
2 | 3:19.39 | 3:08.40 | 14964 | 29103
3 | 6:28.04 | 2:34.05 | 29104 | 40658
4 | 9:02.09 | 13:31.29 | 40659 | 101512
5 | 22:33.38 | 4:28.58 | 101513 | 121670
6 | 27:02.21 | 2:16.58 | 121671 | 131928
7 | 29:19.04 | 4:25.08 | 131929 | 151811
8 | 33:44.12 | 3:55.06 | 151812 | 169442
9 | 37:39.18 | 3:28.33 | 169443 | 185075
10 | 41:07.51 | 4:05.71 | 185076 | 203521
11 | 45:13.47 | 6:16.73 | 203522 | 231794
12 | 51:30.45 | 2:17.34 | 231795 | 242103
Track 1
Filename F:\Music Audio\FLAC\Kammerflimmer Kollektief - Wildling\01 - Move Right In.wav
Pre-gap length 0:00:02.00
Peak level 98.2 %
Track quality 100.0 %
Test CRC 33E54C74
Copy CRC 33E54C74
Track not present in AccurateRip database
Copy OK
Track 2
Filename F:\Music Audio\FLAC\Kammerflimmer Kollektief - Wildling\02 - Silver Chords.wav
Peak level 95.8 %
Track quality 100.0 %
Test CRC 9B6887F8
Copy CRC 9B6887F8
Track not present in AccurateRip database
Copy OK
Track 3
Filename F:\Music Audio\FLAC\Kammerflimmer Kollektief - Wildling\03 - Aum A Go-Go.wav
Peak level 99.5 %
Track quality 99.9 %
Test CRC D2565649
Copy CRC D2565649
Track not present in AccurateRip database
Copy OK
Track 4
Filename F:\Music Audio\FLAC\Kammerflimmer Kollektief - Wildling\04 - In Transition (Version).wav
Peak level 97.3 %
Track quality 100.0 %
Test CRC A9825B03
Copy CRC A9825B03
Track not present in AccurateRip database
Copy OK
Track 5
Filename F:\Music Audio\FLAC\Kammerflimmer Kollektief - Wildling\05 - Spookin' The Horse.wav
Peak level 97.4 %
Track quality 100.0 %
Test CRC 1338E109
Copy CRC 1338E109
Track not present in AccurateRip database
Copy OK
Track 6
Filename F:\Music Audio\FLAC\Kammerflimmer Kollektief - Wildling\06 - Blind.wav
Peak level 97.3 %
Track quality 100.0 %
Test CRC 626590BF
Copy CRC 626590BF
Track not present in AccurateRip database
Copy OK
Track 7
Filename F:\Music Audio\FLAC\Kammerflimmer Kollektief - Wildling\07 - Rotwelsch.wav
Peak level 97.3 %
Track quality 100.0 %
Test CRC 1F6A89F1
Copy CRC 1F6A89F1
Track not present in AccurateRip database
Copy OK
Track 8
Filename F:\Music Audio\FLAC\Kammerflimmer Kollektief - Wildling\08 - Time Is The Fire In Which We Burn.wav
Peak level 97.3 %
Track quality 99.9 %
Test CRC 7A10B91C
Copy CRC 7A10B91C
Track not present in AccurateRip database
Copy OK
Track 9
Filename F:\Music Audio\FLAC\Kammerflimmer Kollektief - Wildling\09 - Cry Tuff.wav
Peak level 98.4 %
Track quality 100.0 %
Test CRC 722EB351
Copy CRC 722EB351
Track not present in AccurateRip database
Copy OK
Track 10
Filename F:\Music Audio\FLAC\Kammerflimmer Kollektief - Wildling\10 - We Paint The Town Beige.wav
Peak level 97.4 %
Track quality 100.0 %
Test CRC FC8EC825
Copy CRC FC8EC825
Track not present in AccurateRip database
Copy OK
Track 11
Filename F:\Music Audio\FLAC\Kammerflimmer Kollektief - Wildling\11 - There's A Crack In Everything.wav
Peak level 97.2 %
Track quality 100.0 %
Test CRC 39FC9BDC
Copy CRC 39FC9BDC
Track not present in AccurateRip database
Copy OK
Track 12
Filename F:\Music Audio\FLAC\Kammerflimmer Kollektief - Wildling\12 - Milte Hi Ankhen (Aka Bird In Hand).wav
Peak level 97.2 %
Track quality 100.0 %
Test CRC 03F347EC
Copy CRC 03F347EC
Track not present in AccurateRip database
Copy OK
None of the tracks are present in the AccurateRip database
No errors occurred
End of status report
 
CUE
REM GENRE Experimental
REM DATE 2010
REM DISCID 8F0C9C0C
REM COMMENT "ExactAudioCopy v0.99pb5"
PERFORMER "Kammerflimmer Kollektief"
TITLE "Wildling"
FILE "Kammerflimmer Kollektief - Wildling\01 - Move Right In.wav" WAVE
TRACK 01 AUDIO
TITLE "Move Right In"
PERFORMER "Kammerflimmer Kollektief"
INDEX 01 00:00:00
FILE "Kammerflimmer Kollektief - Wildling\02 - Silver Chords.wav" WAVE
TRACK 02 AUDIO
TITLE "Silver Chords"
PERFORMER "Kammerflimmer Kollektief"
INDEX 01 00:00:00
FILE "Kammerflimmer Kollektief - Wildling\03 - Aum A Go-Go.wav" WAVE
TRACK 03 AUDIO
TITLE "Aum A Go-Go"
PERFORMER "Kammerflimmer Kollektief"
INDEX 01 00:00:00
FILE "Kammerflimmer Kollektief - Wildling\04 - In Transition (Version).wav" WAVE
TRACK 04 AUDIO
TITLE "In Transition (Version)"
PERFORMER "Kammerflimmer Kollektief"
INDEX 01 00:00:00
FILE "Kammerflimmer Kollektief - Wildling\05 - Spookin' The Horse.wav" WAVE
TRACK 05 AUDIO
TITLE "Spookin' The Horse"
PERFORMER "Kammerflimmer Kollektief"
INDEX 01 00:00:00
FILE "Kammerflimmer Kollektief - Wildling\06 - Blind.wav" WAVE
TRACK 06 AUDIO
TITLE "Blind"
PERFORMER "Kammerflimmer Kollektief"
INDEX 01 00:00:00
FILE "Kammerflimmer Kollektief - Wildling\07 - Rotwelsch.wav" WAVE
TRACK 07 AUDIO
TITLE "Rotwelsch"
PERFORMER "Kammerflimmer Kollektief"
INDEX 01 00:00:00
FILE "Kammerflimmer Kollektief - Wildling\08 - Time Is The Fire In Which We Burn.wav" WAVE
TRACK 08 AUDIO
TITLE "Time Is The Fire In Which We Burn"
PERFORMER "Kammerflimmer Kollektief"
INDEX 01 00:00:00
FILE "Kammerflimmer Kollektief - Wildling\09 - Cry Tuff.wav" WAVE
TRACK 09 AUDIO
TITLE "Cry Tuff"
PERFORMER "Kammerflimmer Kollektief"
INDEX 01 00:00:00
FILE "Kammerflimmer Kollektief - Wildling\10 - We Paint The Town Beige.wav" WAVE
TRACK 10 AUDIO
TITLE "We Paint The Town Beige"
PERFORMER "Kammerflimmer Kollektief"
INDEX 01 00:00:00
FILE "Kammerflimmer Kollektief - Wildling\11 - There's A Crack In Everything.wav" WAVE
TRACK 11 AUDIO
TITLE "There's A Crack In Everything"
PERFORMER "Kammerflimmer Kollektief"
INDEX 01 00:00:00
FILE "Kammerflimmer Kollektief - Wildling\12 - Milte Hi Ankhen (Aka Bird In Hand).wav" WAVE
TRACK 12 AUDIO
TITLE "Milte Hi Ankhen (Aka Bird In Hand)"
PERFORMER "Kammerflimmer Kollektief"
INDEX 01 00:00:00
Any questions -> support@pro-jazz.com. По всем вопросам пишите -> support@pro-jazz.com
19:49
140
Нет комментариев. Ваш будет первым!