Вы используете незарегистрированную версию компонента "Вкладки"!

Поиск

(Avant-Garde, Modern Composition, Experimental, Tzadik) John Zorn - Angelus Novus - 1998, APE (image+.cue), lossless

Треклист:
John Zorn - Angelus Novus
Жанр: Avant-Garde, Modern Composition, Experimental
Год выпуска диска: 1998
Производитель диска: USA
Лейбл: Tzadik (Composer Series)
Аудио кодек: APE
Битрейт аудио: lossless
Продолжительность: 47 min
Трэклист:
Angelus Novus
1 For Your Eyes Only
2 Christabel, Pt. 1
3 Christabel, Pt. 2
4 Carny
5 Angelus Novus: Peshat
6 Angelus Novus: Tzomet
7 Angelus Novus: Aliya
8 Angelus Novus: Herut
9 Angelus Novus: Pardes
Доп. информация: Рип собственный с собственного диска TZ7028... Картинки прилагаются...
 
from All Music Guide
An album which straddles the line between John Zorn's classical compositions and his more theoretical, experimental work, Angelus Novus collects four pieces which span 20 years of his career. 1983's "For Your Eyes Only" is a chamber symphony which lurches from all-out aggression to jazzy horn interludes and breezy wind pieces. "Christabel" is a 1972 student piece that also has sharply executed cuts alternating between fluttering, energetic sections and smooth, serene ones that could act as the soundtrack to the Rime of the Ancient Mariner (Zorn has said that the piece was inspired by Coleridge). "Carny," performed expertly by pianist Stephen Drury, comes from the same era as Zorn's file card compositions, Godard and Spillane, and like them it contains a series of short, seemingly random and unrelated bits. When shuffled together the bits present a cohesive image. The final piece, Angelus Novus, is the newest, but like the others it is a fragmented work — it is divided into five movements, some only slightly more than a minute long, and even within those divisions it manages to execute several themes. Dedicated to Walter Benjamin, the music echoes the influence of many cultures, from traditional Jewish music to modern classical. It contains a complexity which makes it a fitting tribute to Benjamin. Indeed, the whole album, while not shining with the crystalline perfection of his best work, is a solid example of thoughtful composition.
 
EAC Log
Exact Audio Copy V0.99 prebeta 5 from 4. May 2009
EAC extraction logfile from 28. February 2010, 9:25
John Zorn / Angelus Novus
Used drive : HL-DT-STDVD-RAM GH22NP20 Adapter: 0 ID: 0
Read mode : Secure
Utilize accurate stream : Yes
Defeat audio cache : Yes
Make use of C2 pointers : No
Read offset correction : 102
Overread into Lead-In and Lead-Out : No
Fill up missing offset samples with silence : Yes
Delete leading and trailing silent blocks : No
Null samples used in CRC calculations : Yes
Used interface : Native Win32 interface for Win NT & 2000
Used output format : Internal WAV Routines
Sample format : 44.100 Hz; 16 Bit; Stereo
TOC of the extracted CD
Track | Start | Length | Start sector | End sector
---------------------------------------------------------
1 | 0:00.00 | 13:47.64 | 0 | 62088
2 | 13:47.64 | 4:04.43 | 62089 | 80431
3 | 17:52.32 | 3:52.43 | 80432 | 97874
4 | 21:45.00 | 12:43.20 | 97875 | 155119
5 | 34:28.20 | 2:05.30 | 155120 | 164524
6 | 36:33.50 | 1:24.45 | 164525 | 170869
7 | 37:58.20 | 4:35.25 | 170870 | 191519
8 | 42:33.45 | 1:46.15 | 191520 | 199484
9 | 44:19.60 | 2:54.70 | 199485 | 212604
Range status and errors
Selected range
Filename C:\John Zorn (1998) Angelus Novus\John Zorn - Angelus Novus.wav
Peak level 94.4 %
Range quality 100.0 %
Test CRC EE8C6192
Copy CRC EE8C6192
Copy OK
No errors occurred
AccurateRip summary
Track 1 not present in database
Track 2 not present in database
Track 3 not present in database
Track 4 not present in database
Track 5 not present in database
Track 6 not present in database
Track 7 not present in database
Track 8 not present in database
Track 9 not present in database
None of the tracks are present in the AccurateRip database
End of status report
Any questions -> support@pro-jazz.com. По всем вопросам пишите -> support@pro-jazz.com
19:48
184
Нет комментариев. Ваш будет первым!