Вы используете незарегистрированную версию компонента "Вкладки"!

Поиск

(Free Improvisation) William Parker, Joe Morris, Hamid Drake - Eloping With The Sun - 2003, FLAC (tracks), lossless

Треклист:
William Parker, Joe Morris, Hamid Drake - Eloping With The Sun
Жанр: Free Improvisation
Год выпуска диска: 2003
Производитель диска: Riti Records (RITI CD7)
Источник: вот.сиди (theegg)
Аудио кодек: FLAC
Тип рипа: tracks
Битрейт аудио: lossless
Продолжительность: 55:39
Трэклист:
1. Sand Choir 7:59
2. Dawn Son 2:04
3. Hop-Kin 16:49
4. Stepdance 12:53
5. Dream 15:48
All compositions by Parker, Morris, Drake
Recorded December 12, 2001 at AUM Hi-Q, Brooklyn, NY
William Parker - sintir
Joe Morris - banjo & banjouke
Hamid Drake - frame drum
 
Отчёт XLD
X Lossless Decoder version 20091225 (115.1)
XLD extraction logfile from 2009-12-26 13:52:33 -0500
William Parker / Eloping With The Sun
Used drive : MATSHITA DVD-R UJ-868 (revision KA14)
Use cdparanoia mode : YES (CDParanoia III 10.2 engine)
Disable audio cache : OK for the drive with cache less than 2750KB
Make use of C2 pointers : NO
Read offset correction : 102
Max retry count : 100
TOC of the extracted CD
Track | Start | Length | Start sector | End sector
---------------------------------------------------------
1 | 00:00:00 | 08:01:48 | 0 | 36122
2 | 08:01:48 | 02:01:15 | 36123 | 45212
3 | 10:02:63 | 16:51:41 | 45213 | 121078
4 | 26:54:29 | 12:55:52 | 121079 | 179255
5 | 39:50:06 | 15:48:36 | 179256 | 250391
Track 01
Filename : /Users/toydesign/Desktop/whatcd/Parker Morris Drake/Eloping With The Sun/01 William Parker - sand choir.flac
Pre-gap length : 00:02:00
CRC32 hash (test run) : 95BBF000
CRC32 hash : 95BBF000
CRC32 hash (skip zero) : 7F7E2993
AccurateRip signature : 25648304
->Track not present in AccurateRip database.
Statistics
Read error : 0
Skipped (treated as error) : 0
Edge jitter error (maybe fixed) : 0
Atom jitter error (maybe fixed) : 0
Drift error (maybe fixed) : 0
Dropped bytes error (maybe fixed) : 0
Duplicated bytes error (maybe fixed) : 0
Track 02
Filename : /Users/toydesign/Desktop/whatcd/Parker Morris Drake/Eloping With The Sun/02 William Parker - dawn son.flac
Pre-gap length : 00:02:00
CRC32 hash (test run) : C12BEA68
CRC32 hash : C12BEA68
CRC32 hash (skip zero) : 438529BE
AccurateRip signature : 51E22C86
->Track not present in AccurateRip database.
Statistics
Read error : 0
Skipped (treated as error) : 0
Edge jitter error (maybe fixed) : 0
Atom jitter error (maybe fixed) : 0
Drift error (maybe fixed) : 0
Dropped bytes error (maybe fixed) : 0
Duplicated bytes error (maybe fixed) : 0
Track 03
Filename : /Users/toydesign/Desktop/whatcd/Parker Morris Drake/Eloping With The Sun/03 William Parker - hop-kin.flac
Pre-gap length : 00:02:00
CRC32 hash (test run) : 2842F857
CRC32 hash : 2842F857
CRC32 hash (skip zero) : 41F2CB46
AccurateRip signature : D1C07BC8
->Track not present in AccurateRip database.
Statistics
Read error : 0
Skipped (treated as error) : 0
Edge jitter error (maybe fixed) : 0
Atom jitter error (maybe fixed) : 0
Drift error (maybe fixed) : 0
Dropped bytes error (maybe fixed) : 0
Duplicated bytes error (maybe fixed) : 0
Track 04
Filename : /Users/toydesign/Desktop/whatcd/Parker Morris Drake/Eloping With The Sun/04 William Parker - stepdance.flac
Pre-gap length : 00:02:00
CRC32 hash (test run) : 5FDBA4FC
CRC32 hash : 5FDBA4FC
CRC32 hash (skip zero) : D806899E
AccurateRip signature : C82537C2
->Track not present in AccurateRip database.
Statistics
Read error : 0
Skipped (treated as error) : 0
Edge jitter error (maybe fixed) : 0
Atom jitter error (maybe fixed) : 0
Drift error (maybe fixed) : 0
Dropped bytes error (maybe fixed) : 0
Duplicated bytes error (maybe fixed) : 0
Track 05
Filename : /Users/toydesign/Desktop/whatcd/Parker Morris Drake/Eloping With The Sun/05 William Parker - dream.flac
Pre-gap length : 00:02:00
CRC32 hash (test run) : 8273513F
CRC32 hash : 8273513F
CRC32 hash (skip zero) : 2140A353
AccurateRip signature : F8211E56
->Track not present in AccurateRip database.
Statistics
Read error : 0
Skipped (treated as error) : 0
Edge jitter error (maybe fixed) : 0
Atom jitter error (maybe fixed) : 0
Drift error (maybe fixed) : 0
Dropped bytes error (maybe fixed) : 0
Duplicated bytes error (maybe fixed) : 0
No errors occurred
End of status report
 
Отчёт Audiocheckera
AUDIOCHECKER v1.2 - by Dester - opdester@freemail.hu
~~~~~~~~~~~~~~~~~
1 -===- H:\Песеньки\lossless\william parker joe morris hamid drake\eloping with the sun\01 William Parker - sand choir.flac
Extracted successfully
Conclusion: This track looks like CDDA with probability 100%
2 -===- H:\Песеньки\lossless\william parker joe morris hamid drake\eloping with the sun\02 William Parker - dawn son.flac
Extracted successfully
Conclusion: This track looks like CDDA with probability 99%
3 -===- H:\Песеньки\lossless\william parker joe morris hamid drake\eloping with the sun\03 William Parker - hop-kin.flac
Extracted successfully
Conclusion: This track looks like CDDA with probability 100%
4 -===- H:\Песеньки\lossless\william parker joe morris hamid drake\eloping with the sun\04 William Parker - stepdance.flac
Extracted successfully
Conclusion: This track looks like CDDA with probability 100%
5 -===- H:\Песеньки\lossless\william parker joe morris hamid drake\eloping with the sun\05 William Parker - dream.flac
Extracted successfully
Conclusion: This track looks like CDDA with probability 100%
Any questions -> support@pro-jazz.com. По всем вопросам пишите -> support@pro-jazz.com
19:48
132
Нет комментариев. Ваш будет первым!