Вы используете незарегистрированную версию компонента "Вкладки"!

Поиск

(Avant Garde, Modern Creative, Tzadik) David Slusser - Delight At The End Of Tunnel - 1997, FLAC (image+.cue), lossless

(Avant Garde, Modern Creative, Tzadik) David Slusser - Delight At The End Of Tunnel - 1997, FLAC (image+.cue), lossless
Треклист:
David Slusser - Delight At The End Of Tunnel
Жанр: Avant Garde, Modern Creative, Tzadik
Год выпуска диска: 1997
Производитель диска: USA (Tzadik)
Аудио кодек: FLAC
Тип рипа: image+.cue
Битрейт аудио: lossless
Продолжительность: 49.01
Трэклист:
1. Kubrick
2. Sala
3. Dragon
4. Angelo
5. Ill-Prepared
6. Delight at The End Of Tunnel
7. Olive Arrows
8. 80
9. Creaks
10. Turbines
11. Stamps
12. 60 Hertz
13. Hip Replacement
Доп. информация: Chris Ackerman - drums & brushes
Ralph Carney - G clarinet, suona
Johannes Mager - trombone
Tom Nunn - beetle
Len Paterson - guitars, prepared guitar, synth module
Randy Porter - prepared guitar
Dave Scott - trumpet
Dan Seamans - bass
Dale Sola - electric bass
Annese Zamula - alto saxophone
David Slusser - accordion, bass clarinet, dulcimer, drum machines, prepared guitar, elecronics, organ, solo piano, trombone, saxophones, slussomatic, strings, insects, springs, Theremins, sampler, synthesizer, village band
 
eac log
Exact Audio Copy V0.99 prebeta 5 from 4. May 2009
EAC extraction logfile from 13. March 2010, 9:44
David Slusser / Delight at The End of The Tunnel
Used drive : TSSTcorpCDDVDW TS-L633C Adapter: 0 ID: 1
Read mode : Secure
Utilize accurate stream : Yes
Defeat audio cache : Yes
Make use of C2 pointers : No
Read offset correction : 6
Overread into Lead-In and Lead-Out : No
Fill up missing offset samples with silence : Yes
Delete leading and trailing silent blocks : No
Null samples used in CRC calculations : Yes
Used interface : Native Win32 interface for Win NT & 2000
Used output format : User Defined Encoder
Selected bitrate : 768 kBit/s
Quality : High
Add ID3 tag : No
Command line compressor : C:\Program Files (x86)\Exact Audio Copy\Flac\flac.exe
Additional command line options : -8 -V %s
TOC of the extracted CD
Track | Start | Length | Start sector | End sector
---------------------------------------------------------
1 | 0:00.00 | 1:31.42 | 0 | 6866
2 | 1:31.42 | 5:40.63 | 6867 | 32429
3 | 7:12.30 | 4:51.32 | 32430 | 54286
4 | 12:03.62 | 2:50.15 | 54287 | 67051
5 | 14:54.02 | 4:30.18 | 67052 | 87319
6 | 19:24.20 | 4:55.52 | 87320 | 109496
7 | 24:19.72 | 5:04.23 | 109497 | 132319
8 | 29:24.20 | 4:50.32 | 132320 | 154101
9 | 34:14.52 | 0:59.08 | 154102 | 158534
10 | 35:13.60 | 2:34.22 | 158535 | 170106
11 | 37:48.07 | 2:24.53 | 170107 | 180959
12 | 40:12.60 | 3:10.47 | 180960 | 195256
13 | 43:23.32 | 5:38.28 | 195257 | 220634
Range status and errors
Selected range
Filename C:\CDs\David Slusser - Delight At The End Of Tunnel\David Slusser - Delight at The End of The Tunnel.wav
Peak level 98.8 %
Range quality 100.0 %
Copy CRC 06D8632E
Copy OK
No errors occurred
AccurateRip summary
Track 1 accurately ripped (confidence 1) [4FA5FB28]
Track 2 accurately ripped (confidence 1) [7C490494]
Track 3 accurately ripped (confidence 1) [8D043162]
Track 4 accurately ripped (confidence 1) [27D0F12F]
Track 5 accurately ripped (confidence 1) [C4C028A4]
Track 6 accurately ripped (confidence 1) [5117448D]
Track 7 accurately ripped (confidence 1) [F53619D9]
Track 8 accurately ripped (confidence 1) [E1EF6F42]
Track 9 accurately ripped (confidence 1) [A6F445B7]
Track 10 accurately ripped (confidence 1) [0CDAD0D3]
Track 11 accurately ripped (confidence 1) [9B1C66AD]
Track 12 accurately ripped (confidence 1) [765B12C4]
Track 13 accurately ripped (confidence 1) [101E3B1F]
All tracks accurately ripped
End of status report
Any questions -> support@pro-jazz.com. По всем вопросам пишите -> support@pro-jazz.com
19:47
160
Нет комментариев. Ваш будет первым!