Вы используете незарегистрированную версию компонента "Вкладки"!

Поиск

(Modern Creative) Miles Okazaki - Generations - 2009, FLAC (image+.cue), lossless

(Modern Creative) Miles Okazaki - Generations - 2009, FLAC (image+.cue), lossless
Треклист:
Miles Okazaki - Generations
Жанр: Modern Creative
Год выпуска диска: 2009
Производитель диска: USA (licensed to Sunnyside Records SSC 1214)
Аудио кодек: FLAC
Тип рипа: image+.cue
Битрейт аудио: lossless
Продолжительность: 57:11
Miles Okazaki guitar
Miguel Zenon alto saxophone
David Binney tenor saxophone
Christo Knoche tenor saxophone
Jon Flaugher acoustic bass
Dan Weiss drums
Jen Shyu vocals
1. Overture
2. Sun
3. Waves
4. Magic
5. Generations
6. Ghosts
7. Fractal
8. Break
9. Moon

 
Review
"The latest generation of creative musicians has become increasingly involved in the intermingling of written composition and improvisation. Guitarist Miles Okazaki has provided a great example of what the blending of structure and freedom can achieve in his latest CD, Generations.Okazaki is an original composer who puts a lot of thought into his work. The music provides a perfect lab for his experiments in blending rhythmic, melodic and harmonic elements. Okazaki’s ensemble features a unique lineup of three saxophones (David Binney, Miguel Zenon and Christof Knoche), vocalist Jen Shyu, bassist Jon Flaugher and drummer Dan Weiss. All tracks were recorded live in the studio without interruption. This allows the listener to experience the music as an entire piece that blends elements together from song to song. Generations is effective as a sweeping creative composition and as an assemblage of amazing soloists working in a forward looking musical context."
 
EAC Report
Exact Audio Copy V0.99 prebeta 4 from 23. January 2008
EAC extraction logfile from 11. April 2009, 1:07
Miles Okazaki / Generations
Used drive : TSSTcorpCD/DVDW SH-S182M Adapter: 2 ID: 1
Read mode : Secure
Utilize accurate stream : Yes
Defeat audio cache : Yes
Make use of C2 pointers : No
Read offset correction : 6
Overread into Lead-In and Lead-Out : No
Fill up missing offset samples with silence : Yes
Delete leading and trailing silent blocks : No
Null samples used in CRC calculations : Yes
Used interface : Installed external ASPI interface
Used output format : User Defined Encoder
Selected bitrate : 1024 kBit/s
Quality : High
Add ID3 tag : No
Command line compressor : C:\Program Files\Exact Audio Copy\FLAC\FLAC.EXE
Additional command line options : -8 -V -T "ARTIST=%a" -T "TITLE=%t" -T "ALBUM=%g" -T "DATE=%y" -T "TRACKNUMBER=%n" -T "GENRE=%m" -T "COMMENT=%e" %s -o %d
TOC of the extracted CD
Track | Start | Length | Start sector | End sector
---------------------------------------------------------
1 | 0:00.00 | 3:24.38 | 0 | 15337
2 | 3:24.38 | 5:00.00 | 15338 | 37837
3 | 8:24.38 | 11:23.08 | 37838 | 89070
4 | 19:47.46 | 9:15.72 | 89071 | 130767
5 | 29:03.43 | 6:04.23 | 130768 | 158090
6 | 35:07.66 | 9:15.37 | 158091 | 199752
7 | 44:23.28 | 4:45.06 | 199753 | 221133
8 | 49:08.34 | 1:23.73 | 221134 | 227431
9 | 50:32.32 | 6:38.39 | 227432 | 257320
Range status and errors
Selected range
Filename C:\Documents and Settings\Igor\My Documents\My Music\eac\Miles Okazaki - Generations.wav
Peak level 97.7 %
Range quality 100.0 %
Test CRC 49F2105F
Copy CRC 49F2105F
Copy OK
No errors occurred
AccurateRip summary
Track 1 not present in database
Track 2 not present in database
Track 3 not present in database
Track 4 not present in database
Track 5 not present in database
Track 6 not present in database
Track 7 not present in database
Track 8 not present in database
Track 9 not present in database
None of the tracks are present in the AccurateRip database
End of status report
Any questions -> support@pro-jazz.com. По всем вопросам пишите -> support@pro-jazz.com
10:52
153
Нет комментариев. Ваш будет первым!