Вы используете незарегистрированную версию компонента "Вкладки"!

Поиск

(Fusion/Ecm) Dave Holland Quintet - The Razor's Edge - 1987, APE (image+.cue), lossless

(Fusion/Ecm) Dave Holland Quintet - The Razor's Edge - 1987, APE (image+.cue), lossless
Треклист:
Dave Holland Quintet - The Razor's Edge
Жанр: Fusion/Ecm
Год выпуска диска: 1987
Производитель диска: U.S.A.
Аудио кодек: APE
Тип рипа: image+.cue
Битрейт аудио: lossless
Продолжительность: 51:24
Трэклист:
1. BROTHER TY (D.Hammond) 4:34
2. VEDANA (D.Holland) 4:53
3. THE RAZOR'S EDGE (D.Holland) 7:52
4. BLUES FOR C.M. (D.Holland) 9:15
5. VORTEX (S.Coleman) 8:11
6. 5 FOUR SIX (K.Wheeler) 4:26
7. WIGHTS WAITS FOR WEIGHTS (S.Coleman) 5:25
8. FIGIT TIME (D.Hammond) 6:17
Доп. информация:
DAVE HOLLAND- bass
STEVE COLEMAN- alto sax
KENNY WHEELER- flugelhorn, trumpet, cornet
ROBIN EUBANKS- trombone
MARVIN "SMITTY" SMITH- drums
Rec. February 1987
За альбом большое спасибо уважаемой gorall007.
Tau, распознав семь треков как MPEG и восьмой как CDDA, вынес вердикт UNKNOWN.
 
Отчёт EAC
Exact Audio Copy V0.99 prebeta 4 from 23. January 2008
EAC extraction logfile from 10. May 2009, 0:43
Dave Holland Quintet / The Razor's Edge
Used drive : PLEXTOR DVDR PX-800A Adapter: 1 ID: 1
Read mode : Secure
Utilize accurate stream : Yes
Defeat audio cache : Yes
Make use of C2 pointers : No
Read offset correction : 48
Overread into Lead-In and Lead-Out : No
Fill up missing offset samples with silence : Yes
Delete leading and trailing silent blocks : No
Null samples used in CRC calculations : Yes
Used interface : Installed external ASPI interface
Used output format : Internal WAV Routines
Sample format : 44.100 Hz; 16 Bit; Stereo
TOC of the extracted CD
Track | Start | Length | Start sector | End sector
---------------------------------------------------------
1 | 0:00.32 | 4:38.00 | 32 | 20881
2 | 4:38.32 | 4:59.00 | 20882 | 43306
3 | 9:37.32 | 7:57.00 | 43307 | 79081
4 | 17:34.32 | 9:19.13 | 79082 | 121019
5 | 26:53.45 | 8:15.00 | 121020 | 158144
6 | 35:08.45 | 4:30.00 | 158145 | 178394
7 | 39:38.45 | 5:30.00 | 178395 | 203144
8 | 45:08.45 | 6:16.25 | 203145 | 231369
Range status and errors
Selected range
Filename E:\Dave Holland Images\The Razor's Edge\The Razor's Edge.wav
Peak level 79.4 %
Range quality 100.0 %
Copy CRC 1261643B
Copy OK
No errors occurred
AccurateRip summary
Track 1 not present in database
Track 2 not present in database
Track 3 not present in database
Track 4 not present in database
Track 5 not present in database
Track 6 not present in database
Track 7 not present in database
Track 8 not present in database
None of the tracks are present in the AccurateRip database
End of status report
Any questions -> support@pro-jazz.com. По всем вопросам пишите -> support@pro-jazz.com
10:52
194
Нет комментариев. Ваш будет первым!