Вы используете незарегистрированную версию компонента "Вкладки"!

Поиск

(jazz, avant-garde, post-bop,free jazz)Don Cherry, Dewey Redman, Charlie Haden, Eddie Blackwell -Old And New Dreams: Playing (1981) ECM 1205, FLAC (tracks+.cue), lossless

(jazz, avant-garde, post-bop,free jazz)Don Cherry, Dewey Redman, Charlie Haden, Eddie Blackwell -Old And New Dreams: Playing (1981) ECM 1205, FLAC (tracks+.cue), lossless
Треклист:


Don Cherry, Dewey Redman, Charlie Haden, Eddie Blackwell
Old And New Dreams
Playing

Жанр: jazz, avant-garde, post-bop,free jazz
Год выпуска: 1981
Формат: FLAC (tracks+.cue)
Битрейт аудио: lossless
Продолжительность
Источник: ed2k

tracks
1. Happy House
2. Mopti
3. New Dream
4. Rushour
5. Broken Shadows
6. Playing


 
logfile
Exact Audio Copy V0.99 prebeta 4 from 23. January 2008
EAC extraction logfile from 1. May 2009, 20:58
Old and New Dreams / Playing
Used drive : HL-DT-STDVD-RAM GSA-H50N Adapter: 2 ID: 0
Read mode : Secure
Utilize accurate stream : Yes
Defeat audio cache : Yes
Make use of C2 pointers : No
Read offset correction : 102
Overread into Lead-In and Lead-Out : No
Fill up missing offset samples with silence : Yes
Delete leading and trailing silent blocks : No
Null samples used in CRC calculations : Yes
Used interface : Native Win32 interface for Win NT & 2000
Gap handling : Appended to previous track
Used output format : User Defined Encoder
Selected bitrate : 1024 kBit/s
Quality : High
Add ID3 tag : No
Command line compressor : C:\Program Files\FLAC\flac.exe
Additional command line options : -8 -V -T "ARTIST=%a" -T "TITLE=%t" -T "ALBUM=%g" -T "DATE=%y" -T "TRACKNUMBER=%n" -T "GENRE=%m" -T "COMMENT=EAC FLAC -8" %s
TOC of the extracted CD
Track | Start | Length | Start sector | End sector
---------------------------------------------------------
1 | 0:00.32 | 11:07.13 | 32 | 50069
2 | 11:07.45 | 7:56.55 | 50070 | 85824
3 | 19:04.25 | 9:04.05 | 85825 | 126629
4 | 28:08.30 | 7:01.35 | 126630 | 158239
5 | 35:09.65 | 9:58.62 | 158240 | 203151
6 | 45:08.52 | 9:46.05 | 203152 | 247106
Track 1
Filename C:\EAC Rips\Old And New Dreams - Playing (1981) [FLAC] {ECM 1205}\01 - Happy House.wav
Pre-gap length 0:00:02.42
Peak level 74.8 %
Track quality 99.9 %
Test CRC 4B3A06AF
Copy CRC 4B3A06AF
Accurately ripped (confidence 3) [14E454E2]
Copy OK
Track 2
Filename C:\EAC Rips\Old And New Dreams - Playing (1981) [FLAC] {ECM 1205}\02 - Mopti.wav
Peak level 72.7 %
Track quality 100.0 %
Test CRC 8CF1F211
Copy CRC 8CF1F211
Accurately ripped (confidence 3) [B5F5E0F3]
Copy OK
Track 3
Filename C:\EAC Rips\Old And New Dreams - Playing (1981) [FLAC] {ECM 1205}\03 - New Dream.wav
Peak level 64.7 %
Track quality 100.0 %
Test CRC B8B5C8D7
Copy CRC B8B5C8D7
Accurately ripped (confidence 3) [8F492AF8]
Copy OK
Track 4
Filename C:\EAC Rips\Old And New Dreams - Playing (1981) [FLAC] {ECM 1205}\04 - Rushour.wav
Peak level 75.4 %
Track quality 100.0 %
Test CRC 15AF6D60
Copy CRC 15AF6D60
Accurately ripped (confidence 3) [AEFAF87D]
Copy OK
Track 5
Filename C:\EAC Rips\Old And New Dreams - Playing (1981) [FLAC] {ECM 1205}\05 - Broken Shadows.wav
Peak level 65.1 %
Track quality 100.0 %
Test CRC 0A5A3936
Copy CRC 0A5A3936
Accurately ripped (confidence 3) [7A361365]
Copy OK
Track 6
Filename C:\EAC Rips\Old And New Dreams - Playing (1981) [FLAC] {ECM 1205}\06 - Playing.wav
Peak level 64.6 %
Track quality 100.0 %
Test CRC 61631AC6
Copy CRC 61631AC6
Accurately ripped (confidence 3) [3BF0298E]
Copy OK
All tracks accurately ripped
No errors occurred
End of status report

Don Cherry / Dewey Redman / Charlie Haden / Ed Blackwell - Old and New Dreams[Black Saint] - 1977
Don Cherry / Dewey Redman / Charlie Haden / Ed Blackwell - Old and New Dreams (ECM 1154) - 1979
другие релизы
Any questions -> support@pro-jazz.com. По всем вопросам пишите -> support@pro-jazz.com
10:51
203
Нет комментариев. Ваш будет первым!