Вы используете незарегистрированную версию компонента "Вкладки"!

Поиск

(Fusion/Ecm) Dave Holland Quartet - Extensions - 1989, APE (image+.cue), lossless

(Fusion/Ecm) Dave Holland Quartet - Extensions - 1989, APE (image+.cue), lossless
Треклист:
Dave Holland Quartet - Extensions
Жанр: Fusion/Ecm
Год выпуска диска: 1989
Производитель диска: U.S.A.
Аудио кодек: APE
Тип рипа: image+.cue
Битрейт аудио: lossless
Продолжительность: 58:58
Трэклист:
1. NEMESIS (K.Eubanks) 11:31
2. PROCESSIONAL (D.Holland) 7:16
3. BLACK HOLE (S.Coleman) 10:10
4. THE ORACLE (D.Holland) 14:32
5. 101* FAHRENHEIT (SLOW MELTDOWN) (S.Coleman) 4:50
6. COLOR OF MIND (K.Eubanks) 10:11
Доп. информация:
DAVE HOLLAND- bass
STEVE COLEMAN- alto sax
KEVIN EUBANKS- guitar
MARVIN "SMITTY" SMITH- drums
Rec. Septembsr 1989
За альбом большое спасибо уважаемой gorall007.
 
Отчёт EAC
Exact Audio Copy V0.99 prebeta 4 from 23. January 2008
EAC extraction logfile from 30. April 2009, 14:26
Dave Holland Quartet / Extensions
Used drive : PLEXTOR DVDR PX-800A Adapter: 1 ID: 1
Read mode : Secure
Utilize accurate stream : Yes
Defeat audio cache : Yes
Make use of C2 pointers : No
Read offset correction : 48
Overread into Lead-In and Lead-Out : No
Fill up missing offset samples with silence : Yes
Delete leading and trailing silent blocks : No
Null samples used in CRC calculations : Yes
Used interface : Installed external ASPI interface
Used output format : Internal WAV Routines
Sample format : 44.100 Hz; 16 Bit; Stereo
TOC of the extracted CD
Track | Start | Length | Start sector | End sector
---------------------------------------------------------
1 | 0:00.33 | 11:35.62 | 33 | 52219
2 | 11:36.20 | 7:21.70 | 52220 | 85364
3 | 18:58.15 | 10:15.25 | 85365 | 131514
4 | 29:13.40 | 14:37.73 | 131515 | 197362
5 | 43:51.38 | 4:56.00 | 197363 | 219562
6 | 48:47.38 | 10:11.40 | 219563 | 265427
Range status and errors
Selected range
Filename G:\Dave Holland - Extensions\Extensions.wav
Peak level 99.4 %
Range quality 100.0 %
Copy CRC 087ED1E8
Copy OK
No errors occurred
AccurateRip summary
Track 1 cannot be verified as accurate (confidence 4) [B146B912], AccurateRip returned [E452328D]
Track 2 cannot be verified as accurate (confidence 5) [5FA6CC5A], AccurateRip returned [E03F4D9C]
Track 3 cannot be verified as accurate (confidence 6) [0659FB78], AccurateRip returned [221D9B76]
Track 4 cannot be verified as accurate (confidence 5) [1F3C753F], AccurateRip returned [E9091D4B]
Track 5 cannot be verified as accurate (confidence 7) [9914A9C7], AccurateRip returned [D37F732B]
Track 6 cannot be verified as accurate (confidence 5) [B53F16D1], AccurateRip returned [21FB493A]
No tracks could be verified as accurate
You may have a different pressing from the one(s) in the database
End of status report
Any questions -> support@pro-jazz.com. По всем вопросам пишите -> support@pro-jazz.com
10:50
230
Нет комментариев. Ваш будет первым!